<?xml version="1.0" standalone="no"?>
<!DOCTYPE svg PUBLIC "-//W3C//DTD SVG 1.1//EN" "http://www.w3.org/Graphics/SVG/1.1/DTD/svg11.dtd" >
<svg xmlns="http://www.w3.org/2000/svg" xmlns:xlink="http://www.w3.org/1999/xlink" version="1.1">
<metadata>
Created by FontForge 20170812 at Wed Feb 20 20:47:28 2019
 By root
(c) 2002-2017 Typodermic Fonts Inc.
</metadata>
<defs>
<font id="NeuropolXRg-Regular" horiz-adv-x="893" >
  <font-face 
    font-family="Neuropol X Rg"
    font-weight="400"
    font-stretch="normal"
    units-per-em="1000"
    panose-1="2 0 6 3 4 0 0 2 0 4"
    ascent="773"
    descent="-227"
    x-height="486"
    cap-height="697"
    bbox="-46 -227 1547 1072"
    underline-thickness="20"
    underline-position="-143"
    unicode-range="U+0020-2122"
  />
    <missing-glyph />
    <glyph glyph-name="copyright" unicode="&#x28;C&#x29;" horiz-adv-x="871" 
d="M355 0q-290 0 -290 226v240q0 226 290 226h161q290 0 290 -226v-240q0 -226 -290 -226h-161zM755 466q0 182 -239 182h-161q-240 0 -240 -182v-240q0 -182 240 -182h161q239 0 239 182v240zM392 182q-146 0 -146 96v154q0 94 143 94h191q24 0 24 -20q0 -21 -24 -21h-190
q-91 0 -91 -54v-152q0 -56 95 -56h186q24 0 24 -21q0 -20 -24 -20h-188z" />
    <glyph glyph-name="registered" unicode="&#x28;R&#x29;" horiz-adv-x="871" 
d="M355 0q-290 0 -290 226v240q0 226 290 226h161q290 0 290 -226v-240q0 -226 -290 -226h-161zM755 466q0 182 -239 182h-161q-240 0 -240 -182v-240q0 -182 240 -182h161q239 0 239 182v240zM296 316v-116q0 -20 -27 -20t-27 20v309q0 17 23 17h234q155 0 155 -84v-37
q0 -83 -155 -83h-120l232 -102q15 -6 15 -19q0 -21 -28 -21q-9 0 -18 4zM296 360h204q100 0 100 45v36q0 44 -99 44h-201q-4 0 -4 -3v-122z" />
    <glyph glyph-name="space" unicode=" " horiz-adv-x="373" 
 />
    <glyph glyph-name="exclam" unicode="!" horiz-adv-x="317" 
d="M104 662q0 42 55 42q53 0 53 -42v-462q0 -43 -53 -43q-55 0 -55 43v462zM218 44q0 -49 -60 -49q-59 0 -59 49t60 49q59 0 59 -49z" />
    <glyph glyph-name="quotedbl" unicode="&#x22;" horiz-adv-x="501" 
d="M83 422zM418 461q0 -39 -49 -39q-51 0 -51 39v210q0 40 49 40q51 0 51 -40v-210zM183 461q0 -39 -49 -39q-51 0 -51 39v210q0 40 49 40q51 0 51 -40v-210z" />
    <glyph glyph-name="numbersign" unicode="#" horiz-adv-x="872" 
d="M567 195l-54 -168q-7 -21 -19 -26.5t-24 -5.5q-50 0 -50 33q0 5 1.5 10.5t4.5 14.5l46 142h-173l-54 -168q-7 -21 -19 -26.5t-24 -5.5q-50 0 -50 33q0 5 2 10.5t4 14.5l46 142h-102q-51 0 -51 39t51 39h127l47 144h-116q-50 0 -50 40q0 39 50 39h142l55 169q6 20 17 26
t27 6q23 0 35.5 -8.5t12.5 -23.5q-1 -4 -1 -9t-4 -16l-47 -144h173l55 169q6 20 16.5 26t27.5 6q23 0 35.5 -8.5t12.5 -23.5q0 -4 -1 -9t-5 -16l-47 -144h107q50 0 50 -39q0 -40 -50 -40h-132l-47 -144h121q50 0 50 -39t-50 -39h-146zM325 273h172l47 144h-173z" />
    <glyph glyph-name="dollar" unicode="$" horiz-adv-x="908" 
d="M836 159q0 -159 -304 -159h-29v-42q0 -38 -46 -38q-45 0 -45 38v42h-286q-51 0 -51 41t51 41h286v235h-59q-273 0 -273 148v73q0 154 280 154h52v42q0 37 45 37q46 0 46 -37v-336h31q302 0 302 -158v-81zM503 317v-235h29q195 0 195 83v71q0 81 -185 81h-39zM188 472
q0 -74 164 -74h60v212h-51q-173 0 -173 -76v-62z" />
    <glyph glyph-name="percent" unicode="%" horiz-adv-x="1219" 
d="M61 0zM416 581q0 47 -80 47h-114q-77 0 -77 -47v-154q0 -52 87 -52h98q86 0 86 52v154zM222 311q-161 0 -161 108v170q0 103 159 103h121q159 0 159 -103v-170q0 -108 -161 -108h-117zM1073 270q0 47 -80 47h-114q-77 0 -77 -47v-154q0 -52 87 -52h98q86 0 86 52v154z
M879 0q-161 0 -161 108v170q0 103 159 103h121q159 0 159 -103v-170q0 -108 -161 -108h-117zM335 12q-10 -10 -19 -13.5t-18 -3.5q-19 0 -30.5 9t-11.5 26q0 14 14 28l609 622q17 17 36 17q20 0 31.5 -9t11.5 -26q0 -12 -13 -28z" />
    <glyph glyph-name="ampersand" unicode="&#x26;" horiz-adv-x="1005" 
d="M781 46q-40 -23 -93 -34.5t-116 -11.5h-257q-243 0 -243 150v68q0 48 32 84t95 56l49 15l-51 32q-27 17 -39.5 43t-12.5 61v63q0 120 226 120h116q220 0 220 -120v-60q0 -81 -110 -114l-145 -44l316 -193q15 31 15 73v96q0 41 53 41t53 -41v-87q0 -79 -38 -132l60 -36
q14 -8 20 -16.5t6 -22.5q0 -19 -13 -30t-39 -11q-13 0 -22.5 3.5t-20.5 10.5zM586 81q65 0 111 17l-360 221l-87 -27q-71 -22 -71 -77v-59q0 -75 139 -75h268zM250 516q0 -40 30 -58l82 -50l181 56q59 18 59 53v42q0 53 -114 53h-119q-119 0 -119 -53v-43z" />
    <glyph glyph-name="quotesingle" unicode="'" horiz-adv-x="267" 
d="M183 461q0 -39 -49 -39q-51 0 -51 39v210q0 40 49 40q51 0 51 -40v-210z" />
    <glyph glyph-name="parenleft" unicode="(" horiz-adv-x="503" 
d="M376 -227q-222 0 -222 265v600q0 266 222 266h60q44 0 44 -39q0 -40 -44 -40h-64q-128 0 -128 -184v-605q0 -185 128 -185h64q44 0 44 -39t-44 -39h-60z" />
    <glyph glyph-name="parenright" unicode=")" horiz-adv-x="503" 
d="M127 904q222 0 222 -265v-600q0 -266 -222 -266h-60q-44 0 -44 39q0 40 44 40h64q128 0 128 184v605q0 185 -128 185h-64q-44 0 -44 39t44 39h60z" />
    <glyph glyph-name="asterisk" unicode="*" horiz-adv-x="589" 
d="M463 312q-9 5 -24 15.5t-34 23.5t-39.5 28.5t-40.5 31.5q7 -47 10.5 -77t5.5 -48t2.5 -26.5t0.5 -11.5q0 -23 -10.5 -36t-39.5 -13t-39.5 13t-10.5 36q0 3 0.5 11.5t2.5 26.5t6 48.5t11 77.5q-30 -23 -56.5 -43t-48.5 -34.5t-37.5 -22.5t-22.5 -8q-9 0 -18 5t-16 13.5
t-11.5 18.5t-4.5 20q0 11 6.5 21.5t17.5 17.5q5 4 14 8t26 10.5t45.5 17.5t73.5 29q-23 9 -47 19t-46 19t-40 17t-27 14q-23 13 -23 38q0 10 5 21t12 19t15.5 13.5t16.5 5.5q6 0 22.5 -9t39 -24.5t50 -35.5t54.5 -42q-7 48 -11 78.5t-6 49t-2.5 27.5t-0.5 12q0 23 10.5 36
t39.5 13t39.5 -13t10.5 -37q0 -3 -0.5 -11.5t-2.5 -26.5t-5.5 -48.5t-10.5 -77.5q27 22 53.5 42t49 35t39 23.5t23.5 8.5t15.5 -5.5t15.5 -13.5t12 -19t5 -21q0 -15 -11.5 -27t-34.5 -24t-57 -25.5t-79 -30.5q44 -18 72 -29t45.5 -17.5t26 -10.5t14.5 -8q11 -7 17.5 -17.5
t6.5 -21.5q0 -10 -4.5 -20t-12 -18.5t-16.5 -13.5t-17 -5q-6 0 -11.5 2t-13.5 6z" />
    <glyph glyph-name="plus" unicode="+" horiz-adv-x="725" 
d="M317 309h-202q-50 0 -50 40q0 39 50 39h202v197q0 44 45 44q46 0 46 -44v-197h201q50 0 50 -39q0 -40 -50 -40h-201v-199q0 -44 -46 -44q-45 0 -45 44v199z" />
    <glyph glyph-name="comma" unicode="," horiz-adv-x="288" 
d="M164 -92q-11 -35 -47 -35q-39 0 -39 34q0 11 3 38l10 99q2 23 15 35t40 12q56 0 56 -45q0 -8 -2 -16.5t-6 -21.5z" />
    <glyph glyph-name="hyphen" unicode="-" horiz-adv-x="552" 
d="M110 268q-49 0 -49 41q0 38 49 38h331q50 0 50 -38q0 -41 -50 -41h-331z" />
    <glyph glyph-name="period" unicode="." horiz-adv-x="291" 
d="M205 44q0 -49 -60 -49q-59 0 -59 49t60 49q59 0 59 -49z" />
    <glyph glyph-name="slash" unicode="/" horiz-adv-x="501" 
d="M387 812q12 31 46 31q20 0 32.5 -8t12.5 -25q0 -5 -1 -10.5t-5 -14.5l-358 -926q-13 -31 -45 -31q-46 0 -46 33q0 5 1 10.5t5 14.5z" />
    <glyph glyph-name="zero" unicode="0" horiz-adv-x="990" 
d="M96 0zM787 499q0 111 -182 111h-219q-182 0 -182 -111v-304q0 -113 184 -113h215q184 0 184 113v304zM389 0q-293 0 -293 192v309q0 191 288 191h223q288 0 288 -191v-309q0 -192 -293 -192h-213z" />
    <glyph glyph-name="one" unicode="1" horiz-adv-x="305" 
d="M99 0zM99 655q0 42 56 42q52 0 52 -42v-618q0 -42 -55 -42q-53 0 -53 42v618z" />
    <glyph glyph-name="two" unicode="2" horiz-adv-x="1018" 
d="M136 0q-50 0 -50 35v190q0 159 282 159h298q163 0 163 80v64q0 82 -166 82h-175q-50 0 -50 41t50 41h175q274 0 274 -160v-75q0 -153 -272 -153h-305q-166 0 -166 -83v-133q0 -6 9 -6h683q51 0 51 -41t-51 -41h-750z" />
    <glyph glyph-name="three" unicode="3" horiz-adv-x="1002" 
d="M918 152q0 -152 -256 -152h-535q-49 0 -49 41t49 41h530q153 0 153 79v64q0 84 -153 84h-528q-47 0 -47 39t47 39h525q146 0 146 81v56q0 86 -153 86h-162q-50 0 -50 41t50 41h160q263 0 263 -165v-57q0 -79 -84 -119q94 -42 94 -129v-70z" />
    <glyph glyph-name="four" unicode="4" horiz-adv-x="1019" 
d="M813 215h-678q-49 0 -49 35v405q0 42 54 42t54 -42v-352q0 -6 8 -6h611v358q0 42 55 42q53 0 53 -42v-618q0 -42 -54 -42t-54 42v178z" />
    <glyph glyph-name="five" unicode="5" horiz-adv-x="1024" 
d="M142 0q-51 0 -51 41t51 41h536q166 0 166 82v109q0 79 -162 79l-536 1q-49 0 -49 35v269q0 35 49 35h425q50 0 50 -41t-50 -41h-358q-7 0 -7 -6v-165q0 -6 7 -6h468q271 0 271 -154v-119q0 -160 -273 -160h-537z" />
    <glyph glyph-name="six" unicode="6" horiz-adv-x="1037" 
d="M965 190q0 -190 -308 -190h-265q-296 0 -296 196v310q0 186 288 186h176q50 0 50 -41t-50 -41h-174q-182 0 -182 -106v-53h450q311 0 311 -189v-72zM204 371v-172q0 -117 192 -117h265q195 0 195 111v68q0 110 -198 110h-454z" />
    <glyph glyph-name="seven" unicode="7" horiz-adv-x="944" 
d="M392 21q-11 -14 -23 -20t-30 -6q-56 0 -56 39q0 18 15 36l451 540h-647q-51 0 -51 41t51 41h738q54 0 54 -42q0 -11 -5 -22.5t-18 -26.5z" />
    <glyph glyph-name="eight" unicode="8" horiz-adv-x="1027" 
d="M943 152q0 -152 -257 -152h-345q-256 0 -256 152v70q0 87 93 129q-83 41 -83 119v57q0 165 263 165h312q262 0 262 -165v-57q0 -78 -83 -119q94 -42 94 -129v-70zM834 225q0 84 -153 84h-335q-153 0 -153 -84v-64q0 -79 153 -79h335q153 0 153 79v64zM824 524
q0 86 -153 86h-315q-153 0 -153 -86v-56q0 -81 146 -81h329q146 0 146 81v56z" />
    <glyph glyph-name="nine" unicode="9" horiz-adv-x="991" 
d="M463 0q-50 0 -50 41t50 41h143q183 0 183 106v67h-406q-311 0 -311 190v57q0 190 308 190h220q297 0 297 -196v-310q0 -186 -289 -186h-145zM180 446q0 -110 199 -110h410v157q0 117 -194 117h-219q-196 0 -196 -111v-53z" />
    <glyph glyph-name="colon" unicode=":" horiz-adv-x="291" 
d="M86 55zM205 391q0 -49 -60 -49q-59 0 -59 49t60 49q59 0 59 -49zM205 104q0 -49 -60 -49q-59 0 -59 49t60 49q59 0 59 -49z" />
    <glyph glyph-name="semicolon" unicode=";" horiz-adv-x="291" 
d="M78 0zM164 -32q-11 -35 -47 -35q-39 0 -39 34q0 11 3 38l10 99q2 23 15 35t40 12q56 0 56 -45q0 -8 -2 -16.5t-6 -21.5zM205 391q0 -49 -60 -49q-59 0 -59 49t60 49q59 0 59 -49z" />
    <glyph glyph-name="less" unicode="&#x3c;" horiz-adv-x="719" 
d="M98 302q-33 13 -33 43t33 43l484 184q12 6 27 6q21 0 32.5 -9.5t11.5 -26.5q0 -11 -6.5 -20t-20.5 -14l-424 -163l424 -164q27 -11 27 -34q0 -16 -11.5 -25.5t-32.5 -9.5q-14 0 -27 5z" />
    <glyph glyph-name="equal" unicode="=" horiz-adv-x="725" 
d="M115 205q-50 0 -50 40q0 38 50 38h494q50 0 50 -38q0 -40 -50 -40h-494zM115 413q-50 0 -50 40q0 38 50 38h494q50 0 50 -38q0 -40 -50 -40h-494z" />
    <glyph glyph-name="greater" unicode="&#x3e;" horiz-adv-x="719" 
d="M620 394q18 -7 25.5 -17.5t7.5 -25.5q0 -14 -7.5 -25t-25.5 -18l-483 -184q-14 -6 -28 -6q-21 0 -32.5 9.5t-11.5 26.5q0 22 28 34l424 163l-424 164q-28 10 -28 34q0 16 11.5 25.5t32.5 9.5q13 0 28 -5z" />
    <glyph glyph-name="question" unicode="?" horiz-adv-x="742" 
d="M669 477q0 -135 -245 -135h-62q-148 0 -148 -75v-73q0 -37 -49 -37q-50 0 -50 38v87q0 136 233 136h69q147 0 147 64v71q0 64 -147 64h-120q-50 0 -50 41t50 41h115q257 0 257 -141v-81zM225 44q0 -49 -60 -49t-60 49t60 49t60 -49z" />
    <glyph glyph-name="at" unicode="@" horiz-adv-x="947" 
d="M490 71q-189 0 -189 141v78q0 136 179 136h117q38 0 38 -30v-259h24q106 0 106 77v267q0 69 -106 69h-380q-97 0 -97 -69v-463q0 -76 107 -76h82q39 0 39 -34q0 -33 -39 -33h-90q-182 0 -182 141v466q0 135 179 135h381q189 0 189 -135v-270q0 -141 -189 -141h-169z
M384 213q0 -76 109 -76h60v217q0 5 -8 5h-62q-99 0 -99 -70v-76z" />
    <glyph glyph-name="A" unicode="A" horiz-adv-x="1036" 
d="M771 185h-505l-103 -161q-19 -29 -52 -29q-25 0 -40 10.5t-15 30.5q0 8 2 14.5t9 16.5l396 603q9 14 23.5 20t31.5 7q35 0 53 -27l397 -602q8 -10 10.5 -17t2.5 -15q0 -20 -15 -30.5t-40 -10.5q-32 0 -51 29zM316 262h406l-204 316z" />
    <glyph glyph-name="B" unicode="B" horiz-adv-x="1001" 
d="M918 152q0 -152 -257 -152h-514q-48 0 -48 39v614q0 39 48 39h498q262 0 262 -165v-57q0 -78 -83 -119q94 -42 94 -129v-70zM810 226q0 84 -153 84h-450v-221q0 -7 8 -7h442q153 0 153 79v65zM800 524q0 86 -154 86h-431q-8 0 -8 -7v-216h447q146 0 146 81v56z" />
    <glyph glyph-name="C" unicode="C" 
d="M389 0q-293 0 -293 192v311q0 189 288 189h383q50 0 50 -41t-50 -41h-381q-182 0 -182 -109v-306q0 -113 190 -113h373q50 0 50 -41t-50 -41h-378z" />
    <glyph glyph-name="D" unicode="D" horiz-adv-x="1020" 
d="M818 496q0 114 -199 114h-404q-8 0 -8 -6v-516q0 -6 8 -6h403q200 0 200 114v300zM147 0q-48 0 -48 35v622q0 35 46 35h470q311 0 311 -193v-306q0 -193 -311 -193h-468z" />
    <glyph glyph-name="E" unicode="E" horiz-adv-x="929" 
d="M389 0q-293 0 -293 192v311q0 189 288 189h143q50 0 50 -41t-50 -41h-141q-182 0 -182 -109v-113h596q48 0 48 -39t-48 -39h-596v-115q0 -113 190 -113h406q51 0 51 -41t-51 -41h-411z" />
    <glyph glyph-name="F" unicode="F" horiz-adv-x="908" 
d="M97 506q0 186 288 186h118q50 0 50 -41t-50 -41h-117q-181 0 -181 -106v-121h593q49 0 49 -41t-49 -41h-593v-264q0 -42 -54 -42t-54 42v469z" />
    <glyph glyph-name="G" unicode="G" horiz-adv-x="1003" 
d="M389 0q-293 0 -293 196v310q0 186 288 186h137q51 0 51 -41t-51 -41h-135q-182 0 -182 -106v-305q0 -117 190 -117h216q190 0 190 117v189q0 42 54 42t54 -42v-192q0 -196 -293 -196h-226z" />
    <glyph glyph-name="H" unicode="H" horiz-adv-x="1022" 
d="M815 301h-608v-264q0 -42 -55 -42q-53 0 -53 42v618q0 42 56 42q52 0 52 -42v-272h608v273q0 41 53 41q55 0 55 -41v-619q0 -42 -55 -42q-53 0 -53 42v264z" />
    <glyph glyph-name="I" unicode="I" horiz-adv-x="305" 
d="M99 655q0 42 56 42q52 0 52 -42v-618q0 -42 -55 -42q-53 0 -53 42v618z" />
    <glyph glyph-name="J" unicode="J" horiz-adv-x="567" 
d="M101 0q-50 0 -50 41t50 41h71q190 0 190 117v456q0 42 54 42t54 -42v-459q0 -196 -293 -196h-76z" />
    <glyph glyph-name="K" unicode="K" horiz-adv-x="901" 
d="M207 289v-252q0 -42 -54 -42t-54 42v619q0 41 54 41t54 -41v-246l512 275q22 12 42 12q24 0 37.5 -10.5t13.5 -30.5q0 -10 -5.5 -20.5t-21.5 -18.5l-513 -265l523 -273q19 -10 25.5 -19t6.5 -23q0 -20 -14.5 -31t-41.5 -11q-8 0 -18 2t-24 11z" />
    <glyph glyph-name="L" unicode="L" horiz-adv-x="912" 
d="M392 0q-293 0 -293 196v459q0 42 53 42q55 0 55 -42v-456q0 -117 190 -117h414q50 0 50 -41t-50 -41h-419z" />
    <glyph glyph-name="M" unicode="M" horiz-adv-x="1285" 
d="M1079 514l-381 -492q-8 -11 -21.5 -19t-34.5 -8t-34.5 8t-21.5 19l-379 491v-476q0 -42 -55 -42q-53 0 -53 42v614q0 46 54 46q23 0 37 -8t25 -22l427 -555l429 554q11 14 24.5 22.5t36.5 8.5q55 0 55 -46v-614q0 -42 -54 -42t-54 42v477z" />
    <glyph glyph-name="N" unicode="N" horiz-adv-x="1019" 
d="M155 697q16 0 28 -5.5t25 -16.5l603 -532v513q0 41 54 41t54 -41v-619q0 -42 -57 -42q-17 0 -28.5 6t-24.5 17l-602 532v-513q0 -42 -55 -42q-53 0 -53 42v617q0 43 56 43z" />
    <glyph glyph-name="O" unicode="O" horiz-adv-x="990" 
d="M787 499q0 111 -182 111h-219q-182 0 -182 -111v-304q0 -113 184 -113h215q184 0 184 113v304zM389 0q-293 0 -293 192v309q0 191 288 191h223q288 0 288 -191v-309q0 -192 -293 -192h-213z" />
    <glyph glyph-name="P" unicode="P" horiz-adv-x="997" 
d="M926 416q0 -193 -311 -193h-408v-186q0 -42 -55 -42q-53 0 -53 42v620q0 35 46 35h470q311 0 311 -193v-83zM207 305h411q200 0 200 114v77q0 114 -199 114h-404q-8 0 -8 -7v-298z" />
    <glyph glyph-name="Q" unicode="Q" horiz-adv-x="990" 
d="M664 4q-14 -1 -29.5 -1.5t-32.5 -0.5h-213q-293 0 -293 193v308q0 189 288 189h223q288 0 288 -189v-308q0 -115 -102 -161l71 -49q31 -19 31 -39t-15.5 -30.5t-43.5 -10.5q-7 0 -17.5 2.5t-24.5 11.5zM787 501q0 109 -182 109h-219q-182 0 -182 -109v-306
q0 -113 190 -113h203q190 0 190 113v306z" />
    <glyph glyph-name="R" unicode="R" horiz-adv-x="1005" 
d="M207 271v-234q0 -42 -55 -42q-53 0 -53 42v620q0 35 46 35h470q311 0 311 -170v-74q0 -167 -311 -167h-239l464 -204q30 -13 30 -39q0 -20 -14.5 -31.5t-40.5 -11.5q-11 0 -18.5 2t-19.5 8zM207 357h411q200 0 200 91v72q0 90 -199 90h-404q-8 0 -8 -7v-246z" />
    <glyph glyph-name="S" unicode="S" horiz-adv-x="908" 
d="M836 159q0 -159 -304 -159h-406q-51 0 -51 41t51 41h406q195 0 195 83v71q0 81 -185 81h-189q-273 0 -273 148v73q0 154 280 154h112q50 0 50 -41t-50 -41h-111q-173 0 -173 -76v-62q0 -74 164 -74h182q302 0 302 -158v-81z" />
    <glyph glyph-name="T" unicode="T" horiz-adv-x="856" 
d="M374 610h-273q-50 0 -50 41t50 41h653q51 0 51 -40q0 -42 -51 -42h-272v-573q0 -42 -53 -42q-55 0 -55 42v573z" />
    <glyph glyph-name="U" unicode="U" horiz-adv-x="1009" 
d="M390 0q-293 0 -293 196v459q0 42 54 42t54 -42v-456q0 -117 190 -117h218q189 0 189 117v456q0 42 55 42q54 0 54 -42v-459q0 -196 -293 -196h-228z" />
    <glyph glyph-name="V" unicode="V" horiz-adv-x="1036" 
d="M111 697q32 0 50 -29l356 -555l357 555q18 29 51 29q26 0 41 -10.5t15 -30.5q0 -13 -12 -32l-396 -602q-9 -14 -23.5 -20.5t-30.5 -6.5q-36 0 -54 27l-398 603q-7 10 -9 16.5t-2 14.5q0 20 14.5 30.5t40.5 10.5z" />
    <glyph glyph-name="W" unicode="W" horiz-adv-x="1308" 
d="M654 697q23 0 35.5 -9.5t20.5 -25.5l234 -512l199 514q12 33 54 33q24 0 39 -11t15 -31q0 -5 -1 -11t-6 -17l-237 -591q-10 -22 -22 -31.5t-36 -9.5q-26 0 -39 10.5t-22 30.5l-234 506l-234 -506q-9 -20 -22 -30.5t-39 -10.5q-24 0 -36 9.5t-22 31.5l-237 591
q-5 11 -6 17t-1 11q0 20 14.5 31t39.5 11q22 0 34.5 -8t19.5 -25l198 -513l235 511q8 16 20 25.5t36 9.5z" />
    <glyph glyph-name="X" unicode="X" horiz-adv-x="969" 
d="M481 283l-307 -271q-12 -11 -23.5 -14t-22.5 -3q-25 0 -39.5 10.5t-14.5 28.5q0 12 4.5 20t17.5 19l311 275l-305 268q-14 12 -18 21t-4 17q0 20 14.5 31.5t40.5 11.5q13 0 23.5 -3.5t22.5 -14.5l304 -268l305 268q21 18 46 18q23 0 38 -10.5t15 -28.5q0 -20 -22 -39
l-308 -273l309 -271q15 -14 19 -22t4 -15q0 -20 -15 -31.5t-41 -11.5q-13 0 -23.5 3.5t-22.5 14.5z" />
    <glyph glyph-name="Y" unicode="Y" horiz-adv-x="897" 
d="M502 303v-266q0 -42 -54 -42q-55 0 -55 42v266l-327 317q-9 8 -13.5 15.5t-4.5 18.5q0 20 15 31.5t41 11.5q16 0 26 -5t21 -16l297 -294l298 295q10 10 20.5 15t27.5 5q23 0 38 -11.5t15 -31.5q0 -11 -5 -18.5t-13 -15.5z" />
    <glyph glyph-name="Z" unicode="Z" horiz-adv-x="922" 
d="M139 0q-28 0 -41.5 11t-13.5 31q0 14 6 24.5t21 24.5l568 519h-534q-53 0 -53 41t54 41h643q54 0 54 -39q0 -13 -8 -24.5t-20 -22.5l-571 -524h545q54 0 54 -41t-55 -41h-649z" />
    <glyph glyph-name="bracketleft" unicode="[" horiz-adv-x="503" 
d="M198 -227q-44 0 -44 35v1061q0 35 44 35h238q44 0 44 -39q0 -40 -44 -40h-182q-10 0 -10 -8v-957q0 -9 10 -9h182q44 0 44 -39t-44 -39h-238z" />
    <glyph glyph-name="backslash" unicode="\" horiz-adv-x="501" 
d="M472 -114q3 -9 4 -14.5t2 -10.5q0 -33 -46 -33q-34 0 -45 31l-358 926q-4 9 -5 14.5t-1 10.5q0 17 12 25t33 8q34 0 46 -31z" />
    <glyph glyph-name="bracketright" unicode="]" horiz-adv-x="503" 
d="M305 904q44 0 44 -35v-1061q0 -35 -44 -35h-238q-44 0 -44 39q0 40 44 40h182q10 0 10 8v957q0 9 -10 9h-182q-44 0 -44 39t44 39h238z" />
    <glyph glyph-name="asciicircum" unicode="^" horiz-adv-x="719" 
d="M358 620l-192 -346q-14 -23 -40 -23q-18 0 -30 9t-12 25q0 6 2 11l4 10l225 405q7 13 18 19t25 6q28 0 43 -25l224 -405q6 -9 6 -21q0 -16 -11 -25t-30 -9q-27 0 -39 23z" />
    <glyph glyph-name="underscore" unicode="_" horiz-adv-x="713" 
d="M2 -162q-48 0 -48 41q0 39 48 39h708q47 0 47 -40t-47 -40h-708z" />
    <glyph glyph-name="grave" unicode="`" horiz-adv-x="371" 
d="M61 704q-8 7 -12.5 13t-3.5 17q0 38 56 38q14 0 25 -3t19 -13l170 -174q12 -15 12 -26q0 -35 -45 -35q-11 0 -20 3.5t-19 12.5z" />
    <glyph glyph-name="a" unicode="a" horiz-adv-x="904" 
d="M283 0q-214 0 -214 133v57q0 132 214 132h425v15q0 70 -123 70h-141q-50 0 -50 39q0 40 50 40h141q227 0 227 -149v-196q0 -141 -218 -141h-311zM588 78q120 0 120 66v109h-417q-117 0 -117 -61v-52q0 -62 117 -62h297z" />
    <glyph glyph-name="b" unicode="b" horiz-adv-x="903" 
d="M352 0q-258 0 -258 158v511q0 42 53 42t53 -42v-183h353q258 0 258 -159v-169q0 -158 -258 -158h-201zM200 404v-247q0 -76 148 -76h208q148 0 148 76v171q0 76 -148 76h-356z" />
    <glyph glyph-name="c" unicode="c" horiz-adv-x="822" 
d="M350 0q-259 0 -259 158v169q0 159 259 159h346q52 0 52 -41t-52 -41h-350q-148 0 -148 -76v-171q0 -76 148 -76h350q52 0 52 -40q0 -41 -52 -41h-346z" />
    <glyph glyph-name="d" unicode="d" horiz-adv-x="911" 
d="M353 0q-258 0 -258 158v169q0 159 258 159h353v183q0 42 54 42q53 0 53 -42v-511q0 -158 -258 -158h-202zM558 81q148 0 148 76v247h-356q-148 0 -148 -76v-171q0 -76 148 -76h208z" />
    <glyph glyph-name="e" unicode="e" horiz-adv-x="882" 
d="M196 210v-61q0 -71 139 -71h148q50 0 50 -39t-50 -39h-148q-244 0 -244 148v196q0 142 218 142h289q213 0 213 -128v-112q0 -36 -46 -36h-569zM196 279h502q8 0 8 7v52q0 69 -116 69h-275q-119 0 -119 -69v-59z" />
    <glyph glyph-name="f" unicode="f" horiz-adv-x="532" 
d="M202 404v-367q0 -42 -51 -42q-55 0 -55 42v522q0 150 244 150h85q50 0 50 -39q0 -40 -50 -40h-85q-138 0 -138 -70v-78h223q50 0 50 -39t-50 -39h-223z" />
    <glyph glyph-name="g" unicode="g" horiz-adv-x="904" 
d="M414 -168q-50 0 -50 39t50 39h151q138 0 138 70v35h-353q-259 0 -259 158v154q0 159 259 159h200q259 0 259 -159v-346q0 -149 -244 -149h-151zM198 160q0 -68 142 -68h363v237q0 75 -142 75h-221q-142 0 -142 -75v-169z" />
    <glyph glyph-name="h" unicode="h" horiz-adv-x="906" 
d="M706 329q0 75 -141 75h-363v-367q0 -42 -53 -42t-53 42v632q0 42 53 42t53 -42v-183h353q258 0 258 -159v-290q0 -42 -53 -42q-54 0 -54 42v292z" />
    <glyph glyph-name="i" unicode="i" horiz-adv-x="298" 
d="M91 0zM207 610q0 -48 -58 -48t-58 48t58 48t58 -48zM96 449q0 42 53 42t53 -42v-412q0 -42 -53 -42t-53 42v412z" />
    <glyph glyph-name="j" unicode="j" horiz-adv-x="489" 
d="M0 0zM399 610q0 -48 -58 -48t-58 48t58 48t58 -48zM49 -168q-52 0 -52 41q0 40 52 40h89q149 0 149 76v460q0 42 53 42t53 -42v-459q0 -158 -259 -158h-85z" />
    <glyph glyph-name="k" unicode="k" horiz-adv-x="802" 
d="M202 192v-155q0 -42 -53 -42t-53 42v633q0 41 53 41t53 -41v-364l426 172l25 10t22 3q25 0 39 -10.5t14 -30.5q0 -14 -7.5 -23t-26.5 -17l-416 -161l418 -174q20 -9 26 -19t6 -20q0 -41 -56 -41q-13 0 -22 3.5t-27 11.5z" />
    <glyph glyph-name="l" unicode="l" horiz-adv-x="298" 
d="M96 669q0 42 53 42t53 -42v-632q0 -42 -53 -42t-53 42v632z" />
    <glyph glyph-name="m" unicode="m" horiz-adv-x="1134" 
d="M935 331q0 73 -120 73h-72q-124 0 -124 -73v-294q0 -42 -52 -42q-53 0 -53 42v294q0 73 -123 73h-72q-119 0 -119 -73v-294q0 -42 -53 -42t-53 42v294q0 155 228 155h73q112 0 172 -58q61 58 172 58h73q229 0 229 -155v-294q0 -42 -53 -42t-53 42v294z" />
    <glyph glyph-name="n" unicode="n" horiz-adv-x="897" 
d="M697 327q0 77 -149 77h-200q-148 0 -148 -77v-290q0 -42 -53 -42t-53 42v290q0 159 258 159h193q258 0 258 -159v-290q0 -42 -53 -42t-53 42v290z" />
    <glyph glyph-name="o" unicode="o" 
d="M350 0q-259 0 -259 158v169q0 159 259 159h193q259 0 259 -159v-169q0 -158 -259 -158h-193zM695 328q0 76 -149 76h-200q-148 0 -148 -76v-171q0 -76 148 -76h200q149 0 149 76v171z" />
    <glyph glyph-name="p" unicode="p" horiz-adv-x="903" 
d="M200 0v-132q0 -42 -53 -42t-53 42v459q0 159 258 159h201q258 0 258 -159v-169q0 -158 -258 -158h-353zM200 81h356q148 0 148 76v171q0 76 -148 76h-208q-148 0 -148 -76v-247z" />
    <glyph glyph-name="q" unicode="q" horiz-adv-x="904" 
d="M703 0h-353q-259 0 -259 158v169q0 159 259 159h201q258 0 258 -159v-459q0 -42 -53 -42t-53 42v132zM198 157q0 -76 148 -76h357v247q0 76 -148 76h-209q-148 0 -148 -76v-171z" />
    <glyph glyph-name="r" unicode="r" horiz-adv-x="542" 
d="M94 327q0 159 258 159h77q51 0 51 -41t-51 -41h-81q-148 0 -148 -75v-292q0 -42 -53 -42t-53 42v290z" />
    <glyph glyph-name="s" unicode="s" horiz-adv-x="818" 
d="M739 112q0 -112 -228 -112h-390q-50 0 -50 39t50 39h390q123 0 123 34v56q0 34 -123 34h-206q-228 0 -228 109v47q0 128 235 128h137q51 0 51 -40q0 -20 -13.5 -29.5t-37.5 -9.5h-137q-131 0 -131 -49v-44q0 -41 130 -41h206q222 0 222 -102v-59z" />
    <glyph glyph-name="t" unicode="t" horiz-adv-x="540" 
d="M257 404v-367q0 -42 -52 -42q-54 0 -54 42v367h-41q-49 0 -49 39t49 39h41v92q0 42 52 42q54 0 54 -42v-92h172q50 0 50 -39t-50 -39h-172z" />
    <glyph glyph-name="u" unicode="u" horiz-adv-x="887" 
d="M352 0q-258 0 -258 158v291q0 42 53 42t53 -42v-292q0 -76 148 -76h190q148 0 148 76v292q0 42 53 42q54 0 54 -42v-291q0 -158 -258 -158h-183z" />
    <glyph glyph-name="v" unicode="v" horiz-adv-x="903" 
d="M504 20q-13 -16 -26 -20.5t-29 -4.5t-27.5 5t-23.5 20l-334 400q-8 9 -10.5 15.5t-2.5 12.5q0 20 15 31.5t40 11.5q17 0 27.5 -5.5t19.5 -16.5l297 -362l300 362q9 11 19.5 16.5t27.5 5.5q24 0 39 -11t15 -31q0 -7 -2.5 -13.5t-10.5 -15.5z" />
    <glyph glyph-name="w" unicode="w" horiz-adv-x="1113" 
d="M557 491q20 0 32.5 -8t20.5 -24l177 -331l168 333q7 13 18 21.5t33 8.5q24 0 38.5 -11t14.5 -30q0 -11 -7 -25l-211 -397q-9 -17 -20.5 -25t-32.5 -8q-35 0 -52 32l-179 327l-178 -327q-10 -17 -21.5 -24.5t-30.5 -7.5q-22 0 -33.5 8t-19.5 25l-212 397q-4 8 -5 13t-1 12
q0 19 14.5 30t38.5 11q21 0 33 -8t19 -22l166 -332l177 330q8 16 20.5 24t32.5 8z" />
    <glyph glyph-name="x" unicode="x" horiz-adv-x="874" 
d="M437 190l-266 -181q-21 -15 -42 -14q-52 0 -52 40q0 8 5 17t19 19l256 175l-241 167q-15 10 -20 20t-5 18q0 40 54 40q14 0 23.5 -3.5t20.5 -11.5l255 -177l259 177q11 8 20.5 11.5t21.5 3.5q52 0 52 -41q-1 -7 -4.5 -16t-19.5 -20l-249 -170l248 -171q14 -11 19.5 -20.5
t5.5 -17.5q0 -40 -54 -40q-12 0 -23 3t-22 12z" />
    <glyph glyph-name="y" unicode="y" horiz-adv-x="901" 
d="M410 -168q-50 0 -50 39t50 39h151q138 0 138 71v34h-347q-258 0 -258 181v253q0 42 53 42t53 -42v-258q0 -99 141 -99h358v357q0 42 52 42q54 0 54 -42v-468q0 -149 -244 -149h-151z" />
    <glyph glyph-name="z" unicode="z" horiz-adv-x="884" 
d="M127 0q-55 0 -55 43q0 24 30 44l497 317h-454q-53 0 -53 41t52 41h585q26 0 39.5 -11t13.5 -30q0 -13 -7.5 -24.5t-20.5 -19.5l-502 -320h500q53 0 53 -40q0 -41 -54 -41h-624z" />
    <glyph glyph-name="braceleft" unicode="{" horiz-adv-x="503" 
d="M383 -227q-157 0 -157 174v293q0 59 -71 59h-43q-44 0 -44 40t44 40h43q71 0 71 59v292q0 174 157 174h53q45 0 45 -39q0 -40 -45 -40h-50q-69 0 -69 -97v-285q0 -67 -64 -104q64 -36 64 -105v-286q0 -97 69 -97h50q45 0 45 -39t-45 -39h-53z" />
    <glyph glyph-name="bar" unicode="|" horiz-adv-x="379" 
d="M144 807q0 37 46 37q45 0 45 -37v-943q0 -37 -45 -37q-46 0 -46 37v943z" />
    <glyph glyph-name="braceright" unicode="}" horiz-adv-x="503" 
d="M120 904q157 0 157 -174v-293q0 -59 71 -59h43q44 0 44 -40t-44 -40h-43q-71 0 -71 -59v-292q0 -174 -157 -174h-53q-45 0 -45 39q0 40 45 40h50q69 0 69 97v285q0 68 64 104q-64 36 -64 105v286q0 97 -69 97h-50q-45 0 -45 39t45 39h53z" />
    <glyph glyph-name="asciitilde" unicode="~" horiz-adv-x="750" 
d="M649 320q-26 -29 -61.5 -44t-83.5 -15q-45 0 -78 15.5t-62 33.5t-58 33.5t-67 15.5q-35 0 -54.5 -17.5t-32.5 -45.5q-5 -11 -17.5 -16.5t-23.5 -5.5q-44 0 -44 40q2 25 17.5 48t39.5 39.5t55 26.5t65 10q45 0 77.5 -15.5t61.5 -34t58.5 -34t67.5 -15.5q33 0 54 18t32 45
q7 12 18 17.5t23 5.5q44 0 44 -40q0 -18 -9 -34.5t-22 -30.5z" />
    <glyph glyph-name="nonbreakingspace" unicode="&#xa0;" horiz-adv-x="373" 
 />
    <glyph glyph-name="exclamdown" unicode="&#xa1;" horiz-adv-x="317" 
d="M213 -145q0 -42 -55 -42q-53 0 -53 42v462q0 43 53 43q55 0 55 -43v-462zM99 473q0 49 60 49q59 0 59 -49t-60 -49q-59 0 -59 49z" />
    <glyph glyph-name="cent" unicode="&#xa2;" 
d="M541 0v-42q0 -38 -46 -38q-45 0 -45 38v42h-61q-293 0 -293 192v311q0 189 288 189h66v42q0 37 45 37q46 0 46 -37v-42h226q50 0 50 -41t-50 -41h-226v-528h226q50 0 50 -41t-50 -41h-226zM204 195q0 -113 190 -113h56v528h-64q-182 0 -182 -109v-306z" />
    <glyph glyph-name="sterling" unicode="&#xa3;" horiz-adv-x="921" 
d="M242 309v-221q0 -6 8 -6h549q51 0 51 -41t-51 -41h-617q-49 0 -49 35v274h-42q-49 0 -49 40q0 39 49 39h42v118q0 186 281 186h125q51 0 51 -41t-51 -41h-125q-172 0 -172 -108v-114h393q49 0 49 -39q0 -40 -49 -40h-393z" />
    <glyph glyph-name="currency" unicode="&#xa4;" horiz-adv-x="777" 
d="M500 174q-34 -10 -85 -10h-59q-48 0 -82 9l-158 -161q-10 -10 -19 -13.5t-18 -3.5q-19 0 -30.5 9t-11.5 26q0 14 14 28l153 156q-19 26 -19 68v126q0 41 19 66l-156 160q-12 17 -12 28q0 17 11.5 26t30.5 9q17 0 36 -17l160 -163q34 9 82 9h59q51 0 85 -10l161 164
q17 17 36 17t31 -9t12 -26q0 -6 -4 -13t-9 -15l-160 -163q18 -26 18 -63v-126q0 -39 -18 -64l157 -160q14 -14 14 -28q0 -17 -11.5 -26t-30.5 -9q-9 0 -18.5 3.5t-18.5 13.5zM497 404q0 56 -84 56h-57q-83 0 -83 -56v-118q0 -56 83 -56h57q84 0 84 56v118z" />
    <glyph glyph-name="yen" unicode="&#xa5;" horiz-adv-x="866" 
d="M484 133v-98q0 -40 -51 -40q-52 0 -52 40v98h-215q-41 0 -41 33q0 31 41 31h215v105h-215q-41 0 -41 32t41 32h162l-266 259q-8 8 -12.5 14.5t-4.5 17.5q0 19 14.5 29.5t38.5 10.5q14 0 24 -4.5t20 -14.5l291 -287l290 287q10 10 19.5 14.5t23.5 4.5q24 0 39 -10.5
t15 -29.5q0 -11 -4 -18t-12 -14l-268 -259h172q42 0 42 -32t-42 -32h-224v-105h224q42 0 42 -31q0 -33 -42 -33h-224z" />
    <glyph glyph-name="brokenbar" unicode="&#xa6;" horiz-adv-x="379" 
d="M144 807q0 37 46 37q45 0 45 -37v-393q0 -37 -45 -37q-46 0 -46 37v393zM144 257q0 37 46 37q45 0 45 -37v-393q0 -37 -45 -37q-46 0 -46 37v393z" />
    <glyph glyph-name="section" unicode="&#xa7;" horiz-adv-x="782" 
d="M329 -168q-49 0 -49 39q0 38 49 38h119q134 0 134 83v80h-244q-239 0 -239 161v312q0 161 239 161h115q49 0 49 -39q0 -38 -49 -38h-125q-128 0 -128 -83v-81h244q239 0 239 -160v-313q0 -160 -239 -160h-115zM200 232q0 -82 135 -82h247v157q0 81 -134 81h-248v-156z
" />
    <glyph glyph-name="dieresis" unicode="&#xa8;" horiz-adv-x="444" 
d="M400 610q0 -48 -60 -48q-58 0 -58 48t58 48q60 0 60 -48zM161 610q0 -48 -58 -48t-58 48t58 48t58 -48z" />
    <glyph glyph-name="ordfeminine" unicode="&#xaa;" horiz-adv-x="589" 
d="M198 362q-129 0 -129 80v34q0 79 129 79h255v9q0 42 -74 42h-85q-30 0 -30 24t30 24h85q136 0 136 -90v-117q0 -85 -131 -85h-186zM381 409q72 0 72 39v66h-250q-71 0 -71 -37v-31q0 -37 71 -37h178z" />
    <glyph glyph-name="guillemotleft" unicode="&#xab;" horiz-adv-x="561" 
d="M67 0zM279 217q-5 11 -6.5 16.5t-1.5 9.5q0 5 1.5 10t6.5 16l127 193q9 18 21 23.5t24 5.5q20 0 31.5 -8.5t11.5 -23.5q0 -3 -1.5 -8.5t-6.5 -15.5l-127 -192l127 -192q5 -11 6.5 -16t1.5 -9q0 -15 -11.5 -23t-31.5 -8q-12 0 -24 5t-21 24zM75 217q-5 11 -6.5 16.5
t-1.5 9.5q0 5 1.5 10t6.5 16l127 193q9 18 21 23.5t24 5.5q20 0 31.5 -8.5t11.5 -23.5q0 -3 -1.5 -8.5t-6.5 -15.5l-127 -192l127 -192q5 -11 6.5 -16t1.5 -9q0 -15 -11.5 -23t-31.5 -8q-12 0 -24 5t-21 24z" />
    <glyph glyph-name="logicalnot" unicode="&#xac;" horiz-adv-x="725" 
d="M568 389h-453q-50 0 -50 40q0 39 50 39h494q50 0 50 -40v-389q0 -44 -45 -44q-46 0 -46 44v350z" />
    <glyph glyph-name="macron" unicode="&#xaf;" horiz-adv-x="643" 
d="M91 574q-46 0 -46 36t46 36h461q46 0 46 -36t-46 -36h-461z" />
    <glyph glyph-name="degree" unicode="&#xb0;" horiz-adv-x="557" 
d="M249 411q-171 0 -171 118v126q0 118 171 118h58q171 0 171 -118v-126q0 -118 -171 -118h-58zM389 651q0 56 -83 56h-57q-84 0 -84 -56v-118q0 -56 84 -56h57q83 0 83 56v118z" />
    <glyph glyph-name="plusminus" unicode="&#xb1;" horiz-adv-x="725" 
d="M65 0zM115 0q-50 0 -50 40q0 38 50 38h494q50 0 50 -38q0 -40 -50 -40h-494zM317 384h-202q-50 0 -50 40q0 39 50 39h202v197q0 44 45 44q46 0 46 -44v-197h201q50 0 50 -39q0 -40 -50 -40h-201v-199q0 -44 -46 -44q-45 0 -45 44v199z" />
    <glyph glyph-name="twosuperior" unicode="&#xb2;" horiz-adv-x="621" 
d="M77 311zM113 311q-36 0 -36 25v102q0 91 153 91h155q76 0 76 35v28q0 36 -56 36h-98q-36 0 -36 32t36 32h108q130 0 130 -94v-40q0 -90 -149 -90h-161q-74 0 -74 -37v-51q0 -5 7 -5h341q36 0 36 -32t-36 -32h-396z" />
    <glyph glyph-name="threesuperior" unicode="&#xb3;" horiz-adv-x="611" 
d="M72 311zM534 401q0 -90 -140 -90h-285q-37 0 -37 32t37 32h282q59 0 59 36v26q0 35 -59 35h-281q-35 0 -35 32q0 30 35 30h271q64 0 64 35v20q0 39 -64 39h-75q-36 0 -36 32t36 32h77q146 0 146 -95v-28q0 -41 -36 -63q41 -23 41 -67v-38z" />
    <glyph glyph-name="acute" unicode="&#xb4;" horiz-adv-x="371" 
d="M129 537q-11 -10 -19.5 -13t-19.5 -3q-45 0 -45 35q0 13 12 25l170 175q15 16 43 16q57 0 57 -38q0 -10 -4 -16.5t-12 -13.5z" />
    <glyph glyph-name="paragraph" unicode="&#xb6;" horiz-adv-x="827" 
d="M361 328h-86q-221 0 -221 152v58q0 154 221 154h407q46 0 46 -35v-792q0 -37 -48 -37q-49 0 -49 37v463h-173v-463q0 -37 -48 -37q-49 0 -49 37v463zM151 480q0 -79 122 -79h358v211q0 6 -8 6h-350q-122 0 -122 -79v-59z" />
    <glyph glyph-name="periodcentered" unicode="&#xb7;" horiz-adv-x="291" 
d="M86 263zM205 312q0 -49 -60 -49q-59 0 -59 49t60 49q59 0 59 -49z" />
    <glyph glyph-name="cedilla" unicode="&#xb8;" horiz-adv-x="345" 
d="M300 -98q0 -129 -178 -129h-35q-42 0 -42 33t42 33h35q90 0 90 62v47q0 34 44 34t44 -34v-46z" />
    <glyph glyph-name="onesuperior" unicode="&#xb9;" horiz-adv-x="250" 
d="M83 308zM83 665q0 29 42 29t42 -29v-328q0 -29 -43 -29q-41 0 -41 29v328z" />
    <glyph glyph-name="ordmasculine" unicode="&#xba;" horiz-adv-x="561" 
d="M224 362q-155 0 -155 95v101q0 96 155 96h116q155 0 155 -96v-101q0 -95 -155 -95h-116zM431 559q0 45 -89 45h-120q-89 0 -89 -45v-103q0 -45 89 -45h120q89 0 89 45v103z" />
    <glyph glyph-name="guillemotright" unicode="&#xbb;" horiz-adv-x="561" 
d="M67 0zM359 24q-9 -18 -21 -23.5t-24 -5.5q-19 0 -31 8t-12 23q0 4 1.5 9t6.5 16l127 192l-127 192q-5 10 -6.5 15.5t-1.5 8.5q0 15 12 23.5t31 8.5q12 0 24 -5.5t21 -23.5l127 -193q5 -11 6.5 -16.5t1.5 -9.5q0 -5 -1.5 -10t-6.5 -16zM155 24q-9 -18 -21 -23.5t-24 -5.5
q-19 0 -31 8t-12 23q0 4 1.5 9t6.5 16l127 192l-127 192q-5 10 -6.5 15.5t-1.5 8.5q0 15 12 23.5t31 8.5q12 0 24 -5.5t21 -23.5l127 -193q5 -11 6.5 -16.5t1.5 -9.5q0 -5 -1.5 -10t-6.5 -16z" />
    <glyph glyph-name="onequarter" unicode="&#xbc;" horiz-adv-x="1061" 
d="M44 0zM916 107h-339q-36 0 -36 25v222q0 29 42 29t42 -29v-178q0 -5 7 -5h284v183q0 29 42 29t42 -29v-328q0 -29 -42 -29t-42 29v81zM122 665q0 29 42 29t42 -29v-328q0 -29 -43 -29q-41 0 -41 29v328zM123 12q-10 -10 -19 -13.5t-18 -3.5q-19 0 -30.5 9t-11.5 26
q0 14 14 28l609 622q17 17 36 17q20 0 31.5 -9t11.5 -26q0 -12 -13 -28z" />
    <glyph glyph-name="onehalf" unicode="&#xbd;" horiz-adv-x="972" 
d="M44 0zM481 0q-36 0 -36 25v102q0 91 153 91h155q76 0 76 35v28q0 36 -56 36h-98q-36 0 -36 32t36 32h108q130 0 130 -94v-40q0 -90 -149 -90h-161q-74 0 -74 -37v-51q0 -5 7 -5h341q36 0 36 -32t-36 -32h-396zM122 665q0 29 42 29t42 -29v-328q0 -29 -43 -29
q-41 0 -41 29v328zM123 12q-10 -10 -19 -13.5t-18 -3.5q-19 0 -30.5 9t-11.5 26q0 14 14 28l609 622q17 17 36 17q20 0 31.5 -9t11.5 -26q0 -12 -13 -28z" />
    <glyph glyph-name="threequarters" unicode="&#xbe;" horiz-adv-x="1308" 
d="M60 0zM1163 107h-339q-36 0 -36 25v222q0 29 42 29t42 -29v-178q0 -5 7 -5h284v183q0 29 42 29t42 -29v-328q0 -29 -42 -29t-42 29v81zM522 401q0 -90 -140 -90h-285q-37 0 -37 32t37 32h282q59 0 59 36v26q0 35 -59 35h-281q-35 0 -35 32q0 30 35 30h271q64 0 64 35v20
q0 39 -64 39h-75q-36 0 -36 32t36 32h77q146 0 146 -95v-28q0 -41 -36 -63q41 -23 41 -67v-38zM370 12q-10 -10 -19 -13.5t-18 -3.5q-19 0 -30.5 9t-11.5 26q0 14 14 28l609 622q17 17 36 17q20 0 31.5 -9t11.5 -26q0 -12 -13 -28z" />
    <glyph glyph-name="questiondown" unicode="&#xbf;" horiz-adv-x="742" 
d="M73 40q0 135 245 135h62q148 0 148 75v73q0 37 49 37q50 0 50 -38v-87q0 -136 -233 -136h-69q-147 0 -147 -64v-71q0 -64 147 -64h120q50 0 50 -41t-50 -41h-115q-257 0 -257 141v81zM517 473q0 49 60 49t60 -49t-60 -49t-60 49z" />
    <glyph glyph-name="Agrave" unicode="&#xc0;" horiz-adv-x="1036" 
d="M56 0zM771 185h-505l-103 -161q-19 -29 -52 -29q-25 0 -40 10.5t-15 30.5q0 8 2 14.5t9 16.5l396 603q9 14 23.5 20t31.5 7q35 0 53 -27l397 -602q8 -10 10.5 -17t2.5 -15q0 -20 -15 -30.5t-40 -10.5q-32 0 -51 29zM316 262h406l-204 316zM353 905q-8 7 -12.5 13t-3.5 17
q0 38 56 38q14 0 25 -3t19 -13l170 -174q12 -15 12 -26q0 -35 -45 -35q-11 0 -20 3.5t-19 12.5z" />
    <glyph glyph-name="Aacute" unicode="&#xc1;" horiz-adv-x="1036" 
d="M56 0zM771 185h-505l-103 -161q-19 -29 -52 -29q-25 0 -40 10.5t-15 30.5q0 8 2 14.5t9 16.5l396 603q9 14 23.5 20t31.5 7q35 0 53 -27l397 -602q8 -10 10.5 -17t2.5 -15q0 -20 -15 -30.5t-40 -10.5q-32 0 -51 29zM316 262h406l-204 316zM462 738q-11 -10 -19.5 -13
t-19.5 -3q-45 0 -45 35q0 13 12 25l170 175q15 16 43 16q57 0 57 -38q0 -10 -4 -16.5t-12 -13.5z" />
    <glyph glyph-name="Acircumflex" unicode="&#xc2;" horiz-adv-x="1036" 
d="M56 0zM771 185h-505l-103 -161q-19 -29 -52 -29q-25 0 -40 10.5t-15 30.5q0 8 2 14.5t9 16.5l396 603q9 14 23.5 20t31.5 7q35 0 53 -27l397 -602q8 -10 10.5 -17t2.5 -15q0 -20 -15 -30.5t-40 -10.5q-32 0 -51 29zM316 262h406l-204 316zM518 875l-109 -135
q-7 -9 -18 -13.5t-22 -4.5q-45 0 -45 36q-1 5 1.5 10.5t10.5 15.5l141 172q7 8 18 12t23 5q12 0 23 -4.5t19 -13.5l141 -171q8 -10 10.5 -15.5t2.5 -10.5q0 -36 -46 -36q-25 0 -40 18z" />
    <glyph glyph-name="Atilde" unicode="&#xc3;" horiz-adv-x="1036" 
d="M56 0zM771 185h-505l-103 -161q-19 -29 -52 -29q-25 0 -40 10.5t-15 30.5q0 8 2 14.5t9 16.5l396 603q9 14 23.5 20t31.5 7q35 0 53 -27l397 -602q8 -10 10.5 -17t2.5 -15q0 -20 -15 -30.5t-40 -10.5q-32 0 -51 29zM316 262h406l-204 316zM287 775q-46 0 -46 36t46 36
h461q46 0 46 -36t-46 -36h-461z" />
    <glyph glyph-name="Adieresis" unicode="&#xc4;" horiz-adv-x="1036" 
d="M56 0zM771 185h-505l-103 -161q-19 -29 -52 -29q-25 0 -40 10.5t-15 30.5q0 8 2 14.5t9 16.5l396 603q9 14 23.5 20t31.5 7q35 0 53 -27l397 -602q8 -10 10.5 -17t2.5 -15q0 -20 -15 -30.5t-40 -10.5q-32 0 -51 29zM316 262h406l-204 316zM695 811q0 -48 -60 -48
q-58 0 -58 48t58 48q60 0 60 -48zM456 811q0 -48 -58 -48t-58 48t58 48t58 -48z" />
    <glyph glyph-name="Aring" unicode="&#xc5;" horiz-adv-x="1036" 
d="M56 0zM483 725q-105 0 -105 100v47q0 101 105 101h66q105 0 105 -101v-47q0 -100 -105 -100h-66zM583 874q0 44 -38 44h-58q-38 0 -38 -44v-50q0 -43 38 -43h58q38 0 38 43v50zM771 185h-505l-103 -161q-19 -29 -52 -29q-25 0 -40 10.5t-15 30.5q0 8 2 14.5t9 16.5
l396 603q9 14 23.5 20t31.5 7q35 0 53 -27l397 -602q8 -10 10.5 -17t2.5 -15q0 -20 -15 -30.5t-40 -10.5q-32 0 -51 29zM316 262h406l-204 316z" />
    <glyph glyph-name="AE" unicode="&#xc6;" horiz-adv-x="1446" 
d="M907 0q-286 0 -293 185h-348l-103 -161q-19 -29 -52 -29q-55 0 -55 41q0 10 3 17t11 19l391 592q18 28 58 28h525q51 0 51 -41t-51 -41h-322v-222h596q48 0 48 -39t-48 -39h-596v-111q0 -117 190 -117h407q50 0 50 -41t-50 -41h-412zM316 262h298v348h-74z" />
    <glyph glyph-name="Ccedilla" unicode="&#xc7;" 
d="M96 0zM389 0q-293 0 -293 192v311q0 189 288 189h383q50 0 50 -41t-50 -41h-381q-182 0 -182 -109v-306q0 -113 190 -113h373q50 0 50 -41t-50 -41h-378zM573 -98q0 -129 -178 -129h-35q-42 0 -42 33t42 33h35q90 0 90 62v47q0 34 44 34t44 -34v-46z" />
    <glyph glyph-name="Egrave" unicode="&#xc8;" horiz-adv-x="929" 
d="M96 0zM389 0q-293 0 -293 192v311q0 189 288 189h143q50 0 50 -41t-50 -41h-141q-182 0 -182 -109v-113h596q48 0 48 -39t-48 -39h-596v-115q0 -113 190 -113h406q51 0 51 -41t-51 -41h-411zM281 905q-8 7 -12.5 13t-3.5 17q0 38 56 38q14 0 25 -3t19 -13l170 -174
q12 -15 12 -26q0 -35 -45 -35q-11 0 -20 3.5t-19 12.5z" />
    <glyph glyph-name="Eacute" unicode="&#xc9;" horiz-adv-x="929" 
d="M96 0zM389 0q-293 0 -293 192v311q0 189 288 189h143q50 0 50 -41t-50 -41h-141q-182 0 -182 -109v-113h596q48 0 48 -39t-48 -39h-596v-115q0 -113 190 -113h406q51 0 51 -41t-51 -41h-411zM408 738q-11 -10 -19.5 -13t-19.5 -3q-45 0 -45 35q0 13 12 25l170 175
q15 16 43 16q57 0 57 -38q0 -10 -4 -16.5t-12 -13.5z" />
    <glyph glyph-name="Ecircumflex" unicode="&#xca;" horiz-adv-x="929" 
d="M96 0zM389 0q-293 0 -293 192v311q0 189 288 189h143q50 0 50 -41t-50 -41h-141q-182 0 -182 -109v-113h596q48 0 48 -39t-48 -39h-596v-115q0 -113 190 -113h406q51 0 51 -41t-51 -41h-411zM434 875l-109 -135q-7 -9 -18 -13.5t-22 -4.5q-45 0 -45 36q-1 5 1.5 10.5
t10.5 15.5l141 172q7 8 18 12t23 5q12 0 23 -4.5t19 -13.5l141 -171q8 -10 10.5 -15.5t2.5 -10.5q0 -36 -46 -36q-25 0 -40 18z" />
    <glyph glyph-name="Edieresis" unicode="&#xcb;" horiz-adv-x="929" 
d="M96 0zM389 0q-293 0 -293 192v311q0 189 288 189h143q50 0 50 -41t-50 -41h-141q-182 0 -182 -109v-113h596q48 0 48 -39t-48 -39h-596v-115q0 -113 190 -113h406q51 0 51 -41t-51 -41h-411zM624 811q0 -48 -60 -48q-58 0 -58 48t58 48q60 0 60 -48zM385 811
q0 -48 -58 -48t-58 48t58 48t58 -48z" />
    <glyph glyph-name="Igrave" unicode="&#xcc;" horiz-adv-x="335" 
d="M0 0zM127 655q0 42 56 42q52 0 52 -42v-618q0 -42 -55 -42q-53 0 -53 42v618zM16 905q-8 7 -12.5 13t-3.5 17q0 38 56 38q14 0 25 -3t19 -13l170 -174q12 -15 12 -26q0 -35 -45 -35q-11 0 -20 3.5t-19 12.5z" />
    <glyph glyph-name="Iacute" unicode="&#xcd;" horiz-adv-x="334" 
d="M52 0zM99 655q0 42 56 42q52 0 52 -42v-618q0 -42 -55 -42q-53 0 -53 42v618zM136 738q-11 -10 -19.5 -13t-19.5 -3q-45 0 -45 35q0 13 12 25l170 175q15 16 43 16q57 0 57 -38q0 -10 -4 -16.5t-12 -13.5z" />
    <glyph glyph-name="Icircumflex" unicode="&#xce;" horiz-adv-x="390" 
d="M0 0zM141 655q0 42 56 42q52 0 52 -42v-618q0 -42 -55 -42q-53 0 -53 42v618zM194 875l-109 -135q-7 -9 -18 -13.5t-22 -4.5q-45 0 -45 36q-1 5 1.5 10.5t10.5 15.5l141 172q7 8 18 12t23 5q12 0 23 -4.5t19 -13.5l141 -171q8 -10 10.5 -15.5t2.5 -10.5q0 -36 -46 -36
q-25 0 -40 18z" />
    <glyph glyph-name="Idieresis" unicode="&#xcf;" horiz-adv-x="356" 
d="M0 0zM124 655q0 42 56 42q52 0 52 -42v-618q0 -42 -55 -42q-53 0 -53 42v618zM355 811q0 -48 -60 -48q-58 0 -58 48t58 48q60 0 60 -48zM116 811q0 -48 -58 -48t-58 48t58 48t58 -48z" />
    <glyph glyph-name="Eth" unicode="&#xd0;" horiz-adv-x="1052" 
d="M179 0q-48 0 -48 35v275h-39q-47 0 -47 39t47 39h39v269q0 35 46 35h470q311 0 311 -193v-306q0 -193 -311 -193h-468zM850 496q0 114 -199 114h-404q-8 0 -8 -6v-216h274q48 0 48 -39t-48 -39h-274v-222q0 -6 8 -6h403q200 0 200 114v300z" />
    <glyph glyph-name="Ntilde" unicode="&#xd1;" horiz-adv-x="1019" 
d="M99 0zM155 697q16 0 28 -5.5t25 -16.5l603 -532v513q0 41 54 41t54 -41v-619q0 -42 -57 -42q-17 0 -28.5 6t-24.5 17l-602 532v-513q0 -42 -55 -42q-53 0 -53 42v617q0 43 56 43zM278 775q-46 0 -46 36t46 36h461q46 0 46 -36t-46 -36h-461z" />
    <glyph glyph-name="Ograve" unicode="&#xd2;" horiz-adv-x="990" 
d="M96 0zM787 499q0 111 -182 111h-219q-182 0 -182 -111v-304q0 -113 184 -113h215q184 0 184 113v304zM389 0q-293 0 -293 192v309q0 191 288 191h223q288 0 288 -191v-309q0 -192 -293 -192h-213zM332 905q-8 7 -12.5 13t-3.5 17q0 38 56 38q14 0 25 -3t19 -13l170 -174
q12 -15 12 -26q0 -35 -45 -35q-11 0 -20 3.5t-19 12.5z" />
    <glyph glyph-name="Oacute" unicode="&#xd3;" horiz-adv-x="990" 
d="M96 0zM787 499q0 111 -182 111h-219q-182 0 -182 -111v-304q0 -113 184 -113h215q184 0 184 113v304zM389 0q-293 0 -293 192v309q0 191 288 191h223q288 0 288 -191v-309q0 -192 -293 -192h-213zM477 738q-11 -10 -19.5 -13t-19.5 -3q-45 0 -45 35q0 13 12 25l170 175
q15 16 43 16q57 0 57 -38q0 -10 -4 -16.5t-12 -13.5z" />
    <glyph glyph-name="Ocircumflex" unicode="&#xd4;" horiz-adv-x="990" 
d="M96 0zM787 499q0 111 -182 111h-219q-182 0 -182 -111v-304q0 -113 184 -113h215q184 0 184 113v304zM389 0q-293 0 -293 192v309q0 191 288 191h223q288 0 288 -191v-309q0 -192 -293 -192h-213zM496 875l-109 -135q-7 -9 -18 -13.5t-22 -4.5q-45 0 -45 36
q-1 5 1.5 10.5t10.5 15.5l141 172q7 8 18 12t23 5q12 0 23 -4.5t19 -13.5l141 -171q8 -10 10.5 -15.5t2.5 -10.5q0 -36 -46 -36q-25 0 -40 18z" />
    <glyph glyph-name="Otilde" unicode="&#xd5;" horiz-adv-x="990" 
d="M96 0zM787 499q0 111 -182 111h-219q-182 0 -182 -111v-304q0 -113 184 -113h215q184 0 184 113v304zM389 0q-293 0 -293 192v309q0 191 288 191h223q288 0 288 -191v-309q0 -192 -293 -192h-213zM264 775q-46 0 -46 36t46 36h461q46 0 46 -36t-46 -36h-461z" />
    <glyph glyph-name="Odieresis" unicode="&#xd6;" horiz-adv-x="990" 
d="M96 0zM787 499q0 111 -182 111h-219q-182 0 -182 -111v-304q0 -113 184 -113h215q184 0 184 113v304zM389 0q-293 0 -293 192v309q0 191 288 191h223q288 0 288 -191v-309q0 -192 -293 -192h-213zM672 811q0 -48 -60 -48q-58 0 -58 48t58 48q60 0 60 -48zM433 811
q0 -48 -58 -48t-58 48t58 48t58 -48z" />
    <glyph glyph-name="multiply" unicode="&#xd7;" horiz-adv-x="725" 
d="M429 346l165 -170q15 -15 15 -30q0 -14 -15.5 -26.5t-32.5 -12.5q-21 0 -37 18l-155 159l-154 -159q-19 -19 -38 -19q-17 0 -32 13t-15 27q0 15 15 30l165 170l-165 170q-8 8 -11 15.5t-3 13.5q0 14 14.5 27t32.5 13q20 0 38 -18l154 -159l154 159q18 18 36 18t33 -13
t15 -27t-15 -29z" />
    <glyph glyph-name="Oslash" unicode="&#xd8;" horiz-adv-x="990" 
d="M389 0q-93 0 -158 20l-71 -74q-10 -11 -19.5 -14.5t-18.5 -3.5q-20 0 -32 10t-12 27q0 7 3 14.5t11 15.5l61 64q-57 48 -57 133v309q0 191 288 191h223q78 0 137 -15l83 87q9 9 19.5 13t19.5 4q19 0 32 -10t13 -27q0 -13 -16 -29l-70 -73q70 -48 70 -141v-309
q0 -192 -293 -192h-213zM787 499q0 45 -30 72l-459 -480q37 -9 90 -9h215q184 0 184 113v304zM204 195q0 -37 20 -62l451 472q-16 2 -33 3.5t-37 1.5h-219q-182 0 -182 -111v-304z" />
    <glyph glyph-name="Ugrave" unicode="&#xd9;" horiz-adv-x="1009" 
d="M97 0zM390 0q-293 0 -293 196v459q0 42 54 42t54 -42v-456q0 -117 190 -117h218q189 0 189 117v456q0 42 55 42q54 0 54 -42v-459q0 -196 -293 -196h-228zM341 905q-8 7 -12.5 13t-3.5 17q0 38 56 38q14 0 25 -3t19 -13l170 -174q12 -15 12 -26q0 -35 -45 -35
q-11 0 -20 3.5t-19 12.5z" />
    <glyph glyph-name="Uacute" unicode="&#xda;" horiz-adv-x="1009" 
d="M97 0zM390 0q-293 0 -293 196v459q0 42 54 42t54 -42v-456q0 -117 190 -117h218q189 0 189 117v456q0 42 55 42q54 0 54 -42v-459q0 -196 -293 -196h-228zM488 738q-11 -10 -19.5 -13t-19.5 -3q-45 0 -45 35q0 13 12 25l170 175q15 16 43 16q57 0 57 -38q0 -10 -4 -16.5
t-12 -13.5z" />
    <glyph glyph-name="Ucircumflex" unicode="&#xdb;" horiz-adv-x="1009" 
d="M97 0zM390 0q-293 0 -293 196v459q0 42 54 42t54 -42v-456q0 -117 190 -117h218q189 0 189 117v456q0 42 55 42q54 0 54 -42v-459q0 -196 -293 -196h-228zM504 875l-109 -135q-7 -9 -18 -13.5t-22 -4.5q-45 0 -45 36q-1 5 1.5 10.5t10.5 15.5l141 172q7 8 18 12t23 5
q12 0 23 -4.5t19 -13.5l141 -171q8 -10 10.5 -15.5t2.5 -10.5q0 -36 -46 -36q-25 0 -40 18z" />
    <glyph glyph-name="Udieresis" unicode="&#xdc;" horiz-adv-x="1009" 
d="M97 0zM390 0q-293 0 -293 196v459q0 42 54 42t54 -42v-456q0 -117 190 -117h218q189 0 189 117v456q0 42 55 42q54 0 54 -42v-459q0 -196 -293 -196h-228zM682 811q0 -48 -60 -48q-58 0 -58 48t58 48q60 0 60 -48zM443 811q0 -48 -58 -48t-58 48t58 48t58 -48z" />
    <glyph glyph-name="Yacute" unicode="&#xdd;" horiz-adv-x="897" 
d="M48 0zM502 303v-266q0 -42 -54 -42q-55 0 -55 42v266l-327 317q-9 8 -13.5 15.5t-4.5 18.5q0 20 15 31.5t41 11.5q16 0 26 -5t21 -16l297 -294l298 295q10 10 20.5 15t27.5 5q23 0 38 -11.5t15 -31.5q0 -11 -5 -18.5t-13 -15.5zM432 738q-11 -10 -19.5 -13t-19.5 -3
q-45 0 -45 35q0 13 12 25l170 175q15 16 43 16q57 0 57 -38q0 -10 -4 -16.5t-12 -13.5z" />
    <glyph glyph-name="Thorn" unicode="&#xde;" horiz-adv-x="997" 
d="M99 655q0 42 56 42q52 0 52 -42v-70h408q311 0 311 -193v-86q0 -193 -311 -193h-408v-76q0 -42 -55 -42q-53 0 -53 42v618zM207 503v-308h411q200 0 200 114v80q0 114 -200 114h-411z" />
    <glyph glyph-name="germandbls" unicode="&#xdf;" horiz-adv-x="974" 
d="M892 159q0 -159 -258 -159h-253q-52 0 -52 41q0 40 52 40h260q145 0 145 77v67q0 75 -122 75h-73q-158 0 -158 100v165q0 65 -99 65h-33q-99 0 -99 -69v-524q0 -42 -53 -42t-53 42v523q0 149 202 149h42q193 0 193 -145v-154q0 -31 63 -31h72q224 0 224 -145v-75z" />
    <glyph glyph-name="agrave" unicode="&#xe0;" horiz-adv-x="904" 
d="M69 0zM283 0q-214 0 -214 133v57q0 132 214 132h425v15q0 70 -123 70h-141q-50 0 -50 39q0 40 50 40h141q227 0 227 -149v-196q0 -141 -218 -141h-311zM588 78q120 0 120 66v109h-417q-117 0 -117 -61v-52q0 -62 117 -62h297zM376 704q-8 7 -12.5 13t-3.5 17q0 38 56 38
q14 0 25 -3t19 -13l170 -174q12 -15 12 -26q0 -35 -45 -35q-11 0 -20 3.5t-19 12.5z" />
    <glyph glyph-name="aacute" unicode="&#xe1;" horiz-adv-x="904" 
d="M69 0zM283 0q-214 0 -214 133v57q0 132 214 132h425v15q0 70 -123 70h-141q-50 0 -50 39q0 40 50 40h141q227 0 227 -149v-196q0 -141 -218 -141h-311zM588 78q120 0 120 66v109h-417q-117 0 -117 -61v-52q0 -62 117 -62h297zM502 537q-11 -10 -19.5 -13t-19.5 -3
q-45 0 -45 35q0 13 12 25l170 175q15 16 43 16q57 0 57 -38q0 -10 -4 -16.5t-12 -13.5z" />
    <glyph glyph-name="acircumflex" unicode="&#xe2;" horiz-adv-x="904" 
d="M69 0zM283 0q-214 0 -214 133v57q0 132 214 132h425v15q0 70 -123 70h-141q-50 0 -50 39q0 40 50 40h141q227 0 227 -149v-196q0 -141 -218 -141h-311zM588 78q120 0 120 66v109h-417q-117 0 -117 -61v-52q0 -62 117 -62h297zM529 674l-109 -135q-7 -9 -18 -13.5
t-22 -4.5q-45 0 -45 36q-1 5 1.5 10.5t10.5 15.5l141 172q7 8 18 12t23 5q12 0 23 -4.5t19 -13.5l141 -171q8 -10 10.5 -15.5t2.5 -10.5q0 -36 -46 -36q-25 0 -40 18z" />
    <glyph glyph-name="atilde" unicode="&#xe3;" horiz-adv-x="904" 
d="M69 0zM283 0q-214 0 -214 133v57q0 132 214 132h425v15q0 70 -123 70h-141q-50 0 -50 39q0 40 50 40h141q227 0 227 -149v-196q0 -141 -218 -141h-311zM588 78q120 0 120 66v109h-417q-117 0 -117 -61v-52q0 -62 117 -62h297zM299 574q-46 0 -46 36t46 36h461
q46 0 46 -36t-46 -36h-461z" />
    <glyph glyph-name="adieresis" unicode="&#xe4;" horiz-adv-x="904" 
d="M69 0zM283 0q-214 0 -214 133v57q0 132 214 132h425v15q0 70 -123 70h-141q-50 0 -50 39q0 40 50 40h141q227 0 227 -149v-196q0 -141 -218 -141h-311zM588 78q120 0 120 66v109h-417q-117 0 -117 -61v-52q0 -62 117 -62h297zM669 610q0 -48 -60 -48q-58 0 -58 48t58 48
q60 0 60 -48zM430 610q0 -48 -58 -48t-58 48t58 48t58 -48z" />
    <glyph glyph-name="aring" unicode="&#xe5;" horiz-adv-x="904" 
d="M69 0zM496 524q-105 0 -105 100v47q0 101 105 101h66q105 0 105 -101v-47q0 -100 -105 -100h-66zM596 673q0 44 -38 44h-58q-38 0 -38 -44v-50q0 -43 38 -43h58q38 0 38 43v50zM283 0q-214 0 -214 133v57q0 132 214 132h425v15q0 70 -123 70h-141q-50 0 -50 39
q0 40 50 40h141q227 0 227 -149v-196q0 -141 -218 -141h-311zM588 78q120 0 120 66v109h-417q-117 0 -117 -61v-52q0 -62 117 -62h297z" />
    <glyph glyph-name="ae" unicode="&#xe6;" horiz-adv-x="1502" 
d="M816 210v-61q0 -71 139 -71h148q50 0 50 -39t-50 -39h-148q-130 0 -189 41q-53 -41 -172 -41h-311q-214 0 -214 133v57q0 132 214 132h425v15q0 70 -123 70h-141q-50 0 -50 39q0 40 50 40h141q117 0 174 -40q57 40 170 40h289q213 0 213 -128v-112q0 -36 -46 -36h-569z
M588 78q120 0 120 66v109h-417q-117 0 -117 -61v-52q0 -62 117 -62h297zM816 279h502q8 0 8 7v52q0 69 -116 69h-275q-119 0 -119 -69v-59z" />
    <glyph glyph-name="ccedilla" unicode="&#xe7;" horiz-adv-x="822" 
d="M91 0zM350 0q-259 0 -259 158v169q0 159 259 159h346q52 0 52 -41t-52 -41h-350q-148 0 -148 -76v-171q0 -76 148 -76h350q52 0 52 -40q0 -41 -52 -41h-346zM517 -98q0 -129 -178 -129h-35q-42 0 -42 33t42 33h35q90 0 90 62v47q0 34 44 34t44 -34v-46z" />
    <glyph glyph-name="egrave" unicode="&#xe8;" horiz-adv-x="882" 
d="M91 0zM196 210v-61q0 -71 139 -71h148q50 0 50 -39t-50 -39h-148q-244 0 -244 148v196q0 142 218 142h289q213 0 213 -128v-112q0 -36 -46 -36h-569zM196 279h502q8 0 8 7v52q0 69 -116 69h-275q-119 0 -119 -69v-59zM284 704q-8 7 -12.5 13t-3.5 17q0 38 56 38
q14 0 25 -3t19 -13l170 -174q12 -15 12 -26q0 -35 -45 -35q-11 0 -20 3.5t-19 12.5z" />
    <glyph glyph-name="eacute" unicode="&#xe9;" horiz-adv-x="882" 
d="M91 0zM196 210v-61q0 -71 139 -71h148q50 0 50 -39t-50 -39h-148q-244 0 -244 148v196q0 142 218 142h289q213 0 213 -128v-112q0 -36 -46 -36h-569zM196 279h502q8 0 8 7v52q0 69 -116 69h-275q-119 0 -119 -69v-59zM430 537q-11 -10 -19.5 -13t-19.5 -3q-45 0 -45 35
q0 13 12 25l170 175q15 16 43 16q57 0 57 -38q0 -10 -4 -16.5t-12 -13.5z" />
    <glyph glyph-name="ecircumflex" unicode="&#xea;" horiz-adv-x="882" 
d="M91 0zM196 210v-61q0 -71 139 -71h148q50 0 50 -39t-50 -39h-148q-244 0 -244 148v196q0 142 218 142h289q213 0 213 -128v-112q0 -36 -46 -36h-569zM196 279h502q8 0 8 7v52q0 69 -116 69h-275q-119 0 -119 -69v-59zM446 674l-109 -135q-7 -9 -18 -13.5t-22 -4.5
q-45 0 -45 36q-1 5 1.5 10.5t10.5 15.5l141 172q7 8 18 12t23 5q12 0 23 -4.5t19 -13.5l141 -171q8 -10 10.5 -15.5t2.5 -10.5q0 -36 -46 -36q-25 0 -40 18z" />
    <glyph glyph-name="edieresis" unicode="&#xeb;" horiz-adv-x="882" 
d="M91 0zM196 210v-61q0 -71 139 -71h148q50 0 50 -39t-50 -39h-148q-244 0 -244 148v196q0 142 218 142h289q213 0 213 -128v-112q0 -36 -46 -36h-569zM196 279h502q8 0 8 7v52q0 69 -116 69h-275q-119 0 -119 -69v-59zM626 610q0 -48 -60 -48q-58 0 -58 48t58 48
q60 0 60 -48zM387 610q0 -48 -58 -48t-58 48t58 48t58 -48z" />
    <glyph glyph-name="igrave" unicode="&#xec;" horiz-adv-x="312" 
d="M0 0zM128 449q0 42 53 42t53 -42v-412q0 -42 -53 -42t-53 42v412zM16 704q-8 7 -12.5 13t-3.5 17q0 38 56 38q14 0 25 -3t19 -13l170 -174q12 -15 12 -26q0 -35 -45 -35q-11 0 -20 3.5t-19 12.5z" />
    <glyph glyph-name="iacute" unicode="&#xed;" horiz-adv-x="312" 
d="M30 0zM79 449q0 42 53 42t53 -42v-412q0 -42 -53 -42t-53 42v412zM114 537q-11 -10 -19.5 -13t-19.5 -3q-45 0 -45 35q0 13 12 25l170 175q15 16 43 16q57 0 57 -38q0 -10 -4 -16.5t-12 -13.5z" />
    <glyph glyph-name="icircumflex" unicode="&#xee;" horiz-adv-x="390" 
d="M0 0zM142 449q0 42 53 42t53 -42v-412q0 -42 -53 -42t-53 42v412zM194 674l-109 -135q-7 -9 -18 -13.5t-22 -4.5q-45 0 -45 36q-1 5 1.5 10.5t10.5 15.5l141 172q7 8 18 12t23 5q12 0 23 -4.5t19 -13.5l141 -171q8 -10 10.5 -15.5t2.5 -10.5q0 -36 -46 -36q-25 0 -40 18z
" />
    <glyph glyph-name="idieresis" unicode="&#xef;" horiz-adv-x="356" 
d="M0 0zM124 449q0 42 53 42t53 -42v-412q0 -42 -53 -42t-53 42v412zM355 610q0 -48 -60 -48q-58 0 -58 48t58 48q60 0 60 -48zM116 610q0 -48 -58 -48t-58 48t58 48t58 -48z" />
    <glyph glyph-name="eth" unicode="&#xf0;" horiz-adv-x="908" 
d="M350 0q-259 0 -259 158v154q0 159 259 159h353v86q0 70 -138 70h-151q-50 0 -50 39q0 40 50 40h151q244 0 244 -149v-399q0 -158 -259 -158h-200zM554 81q149 0 149 76v237h-357q-148 0 -148 -76v-161q0 -76 148 -76h208z" />
    <glyph glyph-name="ntilde" unicode="&#xf1;" horiz-adv-x="897" 
d="M94 0zM697 327q0 77 -149 77h-200q-148 0 -148 -77v-290q0 -42 -53 -42t-53 42v290q0 159 258 159h193q258 0 258 -159v-290q0 -42 -53 -42t-53 42v290zM218 574q-46 0 -46 36t46 36h461q46 0 46 -36t-46 -36h-461z" />
    <glyph glyph-name="ograve" unicode="&#xf2;" 
d="M91 0zM350 0q-259 0 -259 158v169q0 159 259 159h193q259 0 259 -159v-169q0 -158 -259 -158h-193zM695 328q0 76 -149 76h-200q-148 0 -148 -76v-171q0 -76 148 -76h200q149 0 149 76v171zM284 704q-8 7 -12.5 13t-3.5 17q0 38 56 38q14 0 25 -3t19 -13l170 -174
q12 -15 12 -26q0 -35 -45 -35q-11 0 -20 3.5t-19 12.5z" />
    <glyph glyph-name="oacute" unicode="&#xf3;" 
d="M91 0zM350 0q-259 0 -259 158v169q0 159 259 159h193q259 0 259 -159v-169q0 -158 -259 -158h-193zM695 328q0 76 -149 76h-200q-148 0 -148 -76v-171q0 -76 148 -76h200q149 0 149 76v171zM429 537q-11 -10 -19.5 -13t-19.5 -3q-45 0 -45 35q0 13 12 25l170 175
q15 16 43 16q57 0 57 -38q0 -10 -4 -16.5t-12 -13.5z" />
    <glyph glyph-name="ocircumflex" unicode="&#xf4;" 
d="M91 0zM350 0q-259 0 -259 158v169q0 159 259 159h193q259 0 259 -159v-169q0 -158 -259 -158h-193zM695 328q0 76 -149 76h-200q-148 0 -148 -76v-171q0 -76 148 -76h200q149 0 149 76v171zM446 674l-109 -135q-7 -9 -18 -13.5t-22 -4.5q-45 0 -45 36q-1 5 1.5 10.5
t10.5 15.5l141 172q7 8 18 12t23 5q12 0 23 -4.5t19 -13.5l141 -171q8 -10 10.5 -15.5t2.5 -10.5q0 -36 -46 -36q-25 0 -40 18z" />
    <glyph glyph-name="otilde" unicode="&#xf5;" 
d="M91 0zM350 0q-259 0 -259 158v169q0 159 259 159h193q259 0 259 -159v-169q0 -158 -259 -158h-193zM695 328q0 76 -149 76h-200q-148 0 -148 -76v-171q0 -76 148 -76h200q149 0 149 76v171zM216 574q-46 0 -46 36t46 36h461q46 0 46 -36t-46 -36h-461z" />
    <glyph glyph-name="odieresis" unicode="&#xf6;" 
d="M91 0zM350 0q-259 0 -259 158v169q0 159 259 159h193q259 0 259 -159v-169q0 -158 -259 -158h-193zM695 328q0 76 -149 76h-200q-148 0 -148 -76v-171q0 -76 148 -76h200q149 0 149 76v171zM623 610q0 -48 -60 -48q-58 0 -58 48t58 48q60 0 60 -48zM384 610
q0 -48 -58 -48t-58 48t58 48t58 -48z" />
    <glyph glyph-name="divide" unicode="&#xf7;" horiz-adv-x="725" 
d="M65 54zM115 309q-50 0 -50 40q0 38 50 38h494q50 0 50 -38q0 -40 -50 -40h-494zM423 103q0 -49 -60 -49q-59 0 -59 49t60 49q59 0 59 -49zM423 584q0 -49 -60 -49q-59 0 -59 49t60 49q59 0 59 -49z" />
    <glyph glyph-name="oslash" unicode="&#xf8;" 
d="M350 0q-73 0 -125 12l-68 -57q-18 -16 -32 -14q-18 0 -29 8.5t-11 24.5q0 5 3 11.5t12 14.5l51 42q-60 40 -60 116v169q0 159 259 159h193q71 0 122 -12l74 62q17 14 32 14q16 0 27.5 -8t11.5 -25q0 -13 -13 -25l-57 -48q62 -39 62 -117v-169q0 -158 -259 -158h-193z
M695 328q0 34 -31 53l-356 -299q9 -1 18 -1h20h200q149 0 149 76v171zM198 157q0 -33 28 -52l354 298q-8 1 -16.5 1h-17.5h-200q-148 0 -148 -76v-171z" />
    <glyph glyph-name="ugrave" unicode="&#xf9;" horiz-adv-x="887" 
d="M94 0zM352 0q-258 0 -258 158v291q0 42 53 42t53 -42v-292q0 -76 148 -76h190q148 0 148 76v292q0 42 53 42q54 0 54 -42v-291q0 -158 -258 -158h-183zM280 704q-8 7 -12.5 13t-3.5 17q0 38 56 38q14 0 25 -3t19 -13l170 -174q12 -15 12 -26q0 -35 -45 -35q-11 0 -20 3.5
t-19 12.5z" />
    <glyph glyph-name="uacute" unicode="&#xfa;" horiz-adv-x="887" 
d="M94 0zM352 0q-258 0 -258 158v291q0 42 53 42t53 -42v-292q0 -76 148 -76h190q148 0 148 76v292q0 42 53 42q54 0 54 -42v-291q0 -158 -258 -158h-183zM427 537q-11 -10 -19.5 -13t-19.5 -3q-45 0 -45 35q0 13 12 25l170 175q15 16 43 16q57 0 57 -38q0 -10 -4 -16.5
t-12 -13.5z" />
    <glyph glyph-name="ucircumflex" unicode="&#xfb;" horiz-adv-x="887" 
d="M94 0zM352 0q-258 0 -258 158v291q0 42 53 42t53 -42v-292q0 -76 148 -76h190q148 0 148 76v292q0 42 53 42q54 0 54 -42v-291q0 -158 -258 -158h-183zM443 674l-109 -135q-7 -9 -18 -13.5t-22 -4.5q-45 0 -45 36q-1 5 1.5 10.5t10.5 15.5l141 172q7 8 18 12t23 5
q12 0 23 -4.5t19 -13.5l141 -171q8 -10 10.5 -15.5t2.5 -10.5q0 -36 -46 -36q-25 0 -40 18z" />
    <glyph glyph-name="udieresis" unicode="&#xfc;" horiz-adv-x="887" 
d="M94 0zM352 0q-258 0 -258 158v291q0 42 53 42t53 -42v-292q0 -76 148 -76h190q148 0 148 76v292q0 42 53 42q54 0 54 -42v-291q0 -158 -258 -158h-183zM621 610q0 -48 -60 -48q-58 0 -58 48t58 48q60 0 60 -48zM382 610q0 -48 -58 -48t-58 48t58 48t58 -48z" />
    <glyph glyph-name="yacute" unicode="&#xfd;" horiz-adv-x="901" 
d="M94 0zM410 -168q-50 0 -50 39t50 39h151q138 0 138 71v34h-347q-258 0 -258 181v253q0 42 53 42t53 -42v-258q0 -99 141 -99h358v357q0 42 52 42q54 0 54 -42v-468q0 -149 -244 -149h-151zM439 537q-11 -10 -19.5 -13t-19.5 -3q-45 0 -45 35q0 13 12 25l170 175
q15 16 43 16q57 0 57 -38q0 -10 -4 -16.5t-12 -13.5z" />
    <glyph glyph-name="thorn" unicode="&#xfe;" horiz-adv-x="903" 
d="M94 669q0 42 53 42t53 -42v-183h353q258 0 258 -159v-169q0 -158 -258 -158h-353v-132q0 -42 -53 -42t-53 42v801zM200 404v-323h356q148 0 148 76v171q0 76 -148 76h-356z" />
    <glyph glyph-name="ydieresis" unicode="&#xff;" horiz-adv-x="901" 
d="M94 0zM410 -168q-50 0 -50 39t50 39h151q138 0 138 71v34h-347q-258 0 -258 181v253q0 42 53 42t53 -42v-258q0 -99 141 -99h358v357q0 42 52 42q54 0 54 -42v-468q0 -149 -244 -149h-151zM627 610q0 -48 -60 -48q-58 0 -58 48t58 48q60 0 60 -48zM388 610q0 -48 -58 -48
t-58 48t58 48t58 -48z" />
    <glyph glyph-name="Lacute" unicode="&#x139;" horiz-adv-x="912" 
d="M99 0zM392 0q-293 0 -293 196v459q0 42 53 42q55 0 55 -42v-456q0 -117 190 -117h414q50 0 50 -41t-50 -41h-419zM215 738q-11 -10 -19.5 -13t-19.5 -3q-45 0 -45 35q0 13 12 25l170 175q15 16 43 16q57 0 57 -38q0 -10 -4 -16.5t-12 -13.5z" />
    <glyph glyph-name="OE" unicode="&#x152;" horiz-adv-x="1625" 
d="M389 0q-293 0 -293 192v309q0 191 288 191h223q164 0 236 -64q70 64 237 64h143q50 0 50 -41t-50 -41h-141q-182 0 -182 -109v-113h596q48 0 48 -39t-48 -39h-596v-115q0 -113 190 -113h406q51 0 51 -41t-51 -41h-411q-171 0 -242 65q-69 -65 -241 -65h-213zM787 499
q0 111 -182 111h-219q-182 0 -182 -111v-304q0 -113 184 -113h215q184 0 184 113v304z" />
    <glyph glyph-name="oe" unicode="&#x153;" horiz-adv-x="1491" 
d="M350 0q-259 0 -259 158v169q0 159 259 159h193q135 0 200 -44q55 44 175 44h289q213 0 213 -128v-112q0 -36 -46 -36h-569v-61q0 -71 139 -71h148q50 0 50 -39t-50 -39h-148q-138 0 -197 46q-64 -46 -204 -46h-193zM695 328q0 76 -149 76h-200q-148 0 -148 -76v-171
q0 -76 148 -76h200q149 0 149 76v171zM805 279h502q8 0 8 7v52q0 69 -116 69h-275q-119 0 -119 -69v-59z" />
    <glyph glyph-name="Scaron" unicode="&#x160;" horiz-adv-x="908" 
d="M75 0zM457 740q-8 -9 -19 -13.5t-23 -4.5q-25 0 -41 19l-141 171q-8 9 -10.5 14.5t-1.5 11.5q0 35 45 35q26 0 40 -17l109 -135l110 135q7 8 17.5 12t22.5 5q46 0 46 -35q0 -6 -2.5 -11.5t-10.5 -14.5zM836 159q0 -159 -304 -159h-406q-51 0 -51 41t51 41h406
q195 0 195 83v71q0 81 -185 81h-189q-273 0 -273 148v73q0 154 280 154h112q50 0 50 -41t-50 -41h-111q-173 0 -173 -76v-62q0 -74 164 -74h182q302 0 302 -158v-81z" />
    <glyph glyph-name="scaron" unicode="&#x161;" horiz-adv-x="818" 
d="M71 0zM421 539q-8 -9 -19 -13.5t-23 -4.5q-25 0 -41 19l-141 171q-8 9 -10.5 14.5t-1.5 11.5q0 35 45 35q26 0 40 -17l109 -135l110 135q7 8 17.5 12t22.5 5q46 0 46 -35q0 -6 -2.5 -11.5t-10.5 -14.5zM739 112q0 -112 -228 -112h-390q-50 0 -50 39t50 39h390
q123 0 123 34v56q0 34 -123 34h-206q-228 0 -228 109v47q0 128 235 128h137q51 0 51 -40q0 -20 -13.5 -29.5t-37.5 -9.5h-137q-131 0 -131 -49v-44q0 -41 130 -41h206q222 0 222 -102v-59z" />
    <glyph glyph-name="tcedilla" unicode="&#x163;" horiz-adv-x="540" 
d="M0 0zM257 404v-367q0 -42 -52 -42q-54 0 -54 42v367h-41q-49 0 -49 39t49 39h41v92q0 42 52 42q54 0 54 -42v-92h172q50 0 50 -39t-50 -39h-172zM251 -98q0 -129 -178 -129h-35q-42 0 -42 33t42 33h35q90 0 90 62v47q0 34 44 34t44 -34v-46z" />
    <glyph glyph-name="Tcaron" unicode="&#x164;" horiz-adv-x="856" 
d="M51 0zM468 740q-8 -9 -19 -13.5t-23 -4.5q-25 0 -41 19l-141 171q-8 9 -10.5 14.5t-1.5 11.5q0 35 45 35q26 0 40 -17l109 -135l110 135q7 8 17.5 12t22.5 5q46 0 46 -35q0 -6 -2.5 -11.5t-10.5 -14.5zM374 610h-273q-50 0 -50 41t50 41h653q51 0 51 -40q0 -42 -51 -42
h-272v-573q0 -42 -53 -42q-55 0 -55 42v573z" />
    <glyph glyph-name="Ydieresis" unicode="&#x178;" horiz-adv-x="897" 
d="M48 0zM502 303v-266q0 -42 -54 -42q-55 0 -55 42v266l-327 317q-9 8 -13.5 15.5t-4.5 18.5q0 20 15 31.5t41 11.5q16 0 26 -5t21 -16l297 -294l298 295q10 10 20.5 15t27.5 5q23 0 38 -11.5t15 -31.5q0 -11 -5 -18.5t-13 -15.5zM626 811q0 -48 -60 -48q-58 0 -58 48
t58 48q60 0 60 -48zM387 811q0 -48 -58 -48t-58 48t58 48t58 -48z" />
    <glyph glyph-name="Zcaron" unicode="&#x17d;" horiz-adv-x="922" 
d="M84 0zM501 740q-8 -9 -19 -13.5t-23 -4.5q-25 0 -41 19l-141 171q-8 9 -10.5 14.5t-1.5 11.5q0 35 45 35q26 0 40 -17l109 -135l110 135q7 8 17.5 12t22.5 5q46 0 46 -35q0 -6 -2.5 -11.5t-10.5 -14.5zM139 0q-28 0 -41.5 11t-13.5 31q0 14 6 24.5t21 24.5l568 519h-534
q-53 0 -53 41t54 41h643q54 0 54 -39q0 -13 -8 -24.5t-20 -22.5l-571 -524h545q54 0 54 -41t-55 -41h-649z" />
    <glyph glyph-name="zcaron" unicode="&#x17e;" horiz-adv-x="884" 
d="M72 0zM484 539q-8 -9 -19 -13.5t-23 -4.5q-25 0 -41 19l-141 171q-8 9 -10.5 14.5t-1.5 11.5q0 35 45 35q26 0 40 -17l109 -135l110 135q7 8 17.5 12t22.5 5q46 0 46 -35q0 -6 -2.5 -11.5t-10.5 -14.5zM127 0q-55 0 -55 43q0 24 30 44l497 317h-454q-53 0 -53 41t52 41
h585q26 0 39.5 -11t13.5 -30q0 -13 -7.5 -24.5t-20.5 -19.5l-502 -320h500q53 0 53 -40q0 -41 -54 -41h-624z" />
    <glyph glyph-name="florin" unicode="&#x192;" horiz-adv-x="638" 
d="M337 403v-533q0 -42 -52 -42q-54 0 -54 42v533h-141q-42 0 -42 32t42 32h141v73q0 169 204 169h85q50 0 50 -39q0 -40 -50 -40h-85q-98 0 -98 -89v-74h209q42 0 42 -32t-42 -32h-209z" />
    <glyph glyph-name="uni01B3" unicode="&#x1b3;" horiz-adv-x="1016" 
d="M502 303v-266q0 -42 -54 -42q-55 0 -55 42v266l-327 317q-9 8 -13.5 15.5t-4.5 18.5q0 20 15 31.5t41 11.5q16 0 26 -5t21 -16l297 -294l243 241q44 43 91 56t99 13h85q51 0 51 -39q0 -40 -51 -40h-85q-14 0 -27 -2t-26.5 -8t-28.5 -17.5t-34 -29.5z" />
    <glyph glyph-name="uni0263" unicode="&#x263;" horiz-adv-x="903" 
d="M398 -227q-142 0 -142 90v34q0 34 11.5 57.5t38.5 52.5l84 87l-325 330q-9 8 -11.5 15t-2.5 13q0 18 14.5 28.5t35.5 10.5q15 0 25.5 -5.5t20.5 -15.5l304 -314l304 314q18 21 46 21q21 0 35.5 -10.5t14.5 -28.5q0 -6 -3 -13t-11 -15l-326 -330l85 -87q27 -29 38.5 -53
t12.5 -57v-34q0 -90 -142 -90h-107zM450 33l-62 -63q-19 -20 -29.5 -36t-10.5 -36v-30q0 -29 66 -29h75q65 0 65 29v30q0 20 -10.5 36t-29.5 35z" />
    <glyph glyph-name="circumflex" unicode="&#x2c6;" horiz-adv-x="480" 
d="M239 674l-109 -135q-7 -9 -18 -13.5t-22 -4.5q-45 0 -45 36q-1 5 1.5 10.5t10.5 15.5l141 172q7 8 18 12t23 5q12 0 23 -4.5t19 -13.5l141 -171q8 -10 10.5 -15.5t2.5 -10.5q0 -36 -46 -36q-25 0 -40 18z" />
    <glyph glyph-name="tilde" unicode="&#x2dc;" horiz-adv-x="643" 
d="M91 574q-46 0 -46 36t46 36h461q46 0 46 -36t-46 -36h-461z" />
    <glyph glyph-name="uni1ECF" unicode="&#x1ecf;" 
d="M91 0zM653 646q0 -77 -121 -77h-52q-21 0 -21 -16v-21q0 -26 -38 -26t-38 27v28q0 57 85 57h56q43 0 43 28v36q0 29 -61 29h-63q-37 0 -37 31q0 30 37 30h62q148 0 148 -80v-46zM350 0q-259 0 -259 158v169q0 159 259 159h193q259 0 259 -159v-169q0 -158 -259 -158h-193
zM695 328q0 76 -149 76h-200q-148 0 -148 -76v-171q0 -76 148 -76h200q149 0 149 76v171z" />
    <glyph glyph-name="uni1ED0" unicode="&#x1ed0;" horiz-adv-x="990" 
d="M96 0zM787 499q0 111 -182 111h-219q-182 0 -182 -111v-304q0 -113 184 -113h215q184 0 184 113v304zM389 0q-293 0 -293 192v309q0 191 288 191h223q288 0 288 -191v-309q0 -192 -293 -192h-213zM772 837q-11 -10 -19.5 -13t-19.5 -3q-45 0 -45 35q0 13 12 25l170 175
q15 16 43 16q57 0 57 -38q0 -10 -4 -16.5t-12 -13.5zM496 875l-109 -135q-7 -9 -18 -13.5t-22 -4.5q-45 0 -45 36q-1 5 1.5 10.5t10.5 15.5l141 172q7 8 18 12t23 5q12 0 23 -4.5t19 -13.5l141 -171q8 -10 10.5 -15.5t2.5 -10.5q0 -36 -46 -36q-25 0 -40 18z" />
    <glyph glyph-name="uni1EE1" unicode="&#x1ee1;" horiz-adv-x="968" 
d="M91 0zM781 404q21 -33 21 -77v-169q0 -158 -259 -158h-193q-259 0 -259 158v169q0 159 259 159h467q51 0 51 19v108q0 42 50 42q49 0 49 -42v-106q0 -103 -154 -103h-32zM695 328q0 76 -149 76h-200q-148 0 -148 -76v-171q0 -76 148 -76h200q149 0 149 76v171zM214 574
q-46 0 -46 36t46 36h461q46 0 46 -36t-46 -36h-461z" />
    <glyph glyph-name="uni1EE2" unicode="&#x1ee2;" horiz-adv-x="1033" 
d="M96 0zM556 -106q0 -48 -58 -48t-58 48t58 48t58 -48zM861 611q34 -43 34 -105v-310q0 -196 -293 -196h-213q-293 0 -293 196v310q0 186 288 186h497q51 0 51 19v108q0 42 49 42t49 -42v-106q0 -102 -153 -102h-16zM787 504q0 106 -185 106h-225q-173 0 -173 -106v-305
q0 -117 190 -117h203q190 0 190 117v305z" />
    <glyph glyph-name="uni1EE3" unicode="&#x1ee3;" horiz-adv-x="968" 
d="M91 0zM504 -106q0 -48 -58 -48t-58 48t58 48t58 -48zM781 404q21 -33 21 -77v-169q0 -158 -259 -158h-193q-259 0 -259 158v169q0 159 259 159h467q51 0 51 19v108q0 42 50 42q49 0 49 -42v-106q0 -103 -154 -103h-32zM695 328q0 76 -149 76h-200q-148 0 -148 -76v-171
q0 -76 148 -76h200q149 0 149 76v171z" />
    <glyph glyph-name="uni1EE4" unicode="&#x1ee4;" horiz-adv-x="1009" 
d="M97 0zM563 -106q0 -48 -58 -48t-58 48t58 48t58 -48zM390 0q-293 0 -293 196v459q0 42 54 42t54 -42v-456q0 -117 190 -117h218q189 0 189 117v456q0 42 55 42q54 0 54 -42v-459q0 -196 -293 -196h-228z" />
    <glyph glyph-name="uni1EE5" unicode="&#x1ee5;" horiz-adv-x="887" 
d="M94 0zM500 -106q0 -48 -58 -48t-58 48t58 48t58 -48zM352 0q-258 0 -258 158v291q0 42 53 42t53 -42v-292q0 -76 148 -76h190q148 0 148 76v292q0 42 53 42q54 0 54 -42v-291q0 -158 -258 -158h-183z" />
    <glyph glyph-name="uni1EE6" unicode="&#x1ee6;" horiz-adv-x="1009" 
d="M97 0zM717 847q0 -77 -121 -77h-52q-21 0 -21 -16v-21q0 -26 -38 -26t-38 27v28q0 57 85 57h56q43 0 43 28v36q0 29 -61 29h-63q-37 0 -37 31q0 30 37 30h62q148 0 148 -80v-46zM390 0q-293 0 -293 196v459q0 42 54 42t54 -42v-456q0 -117 190 -117h218q189 0 189 117
v456q0 42 55 42q54 0 54 -42v-459q0 -196 -293 -196h-228z" />
    <glyph glyph-name="endash" unicode="&#x2013;" horiz-adv-x="675" 
d="M110 268q-49 0 -49 41q0 38 49 38h454q51 0 51 -38q0 -41 -51 -41h-454z" />
    <glyph glyph-name="emdash" unicode="&#x2014;" horiz-adv-x="818" 
d="M110 268q-49 0 -49 41q0 38 49 38h597q50 0 50 -38q0 -41 -50 -41h-597z" />
    <glyph glyph-name="quoteleft" unicode="&#x2018;" horiz-adv-x="237" 
d="M158 467q-2 -21 -14.5 -33.5t-41.5 -12.5t-41.5 12t-12.5 32q0 16 6 39l31 170q10 37 47 37q22 0 31 -9.5t9 -25.5q0 -8 -1 -17t-2 -23z" />
    <glyph glyph-name="quoteright" unicode="&#x2019;" horiz-adv-x="237" 
d="M152 456q-9 -35 -47 -35t-38 35q0 6 0.5 15.5t1.5 22.5l11 170q2 22 14 34.5t41 12.5q55 0 55 -45q0 -8 -2 -18.5t-4 -19.5z" />
    <glyph glyph-name="quotesinglbase" unicode="&#x201a;" horiz-adv-x="237" 
d="M67 0zM152 -116q-9 -35 -47 -35t-38 35q0 6 0.5 15.5t1.5 22.5l11 170q2 22 14 34.5t41 12.5q55 0 55 -45q0 -8 -2 -18.5t-4 -19.5z" />
    <glyph glyph-name="quotedblleft" unicode="&#x201c;" horiz-adv-x="450" 
d="M48 421zM370 467q-2 -21 -14.5 -33.5t-41.5 -12.5t-41.5 12t-12.5 32q0 16 6 39l31 170q10 37 47 37q22 0 31 -9.5t9 -25.5q0 -8 -1 -17t-2 -23zM158 467q-2 -21 -14.5 -33.5t-41.5 -12.5t-41.5 12t-12.5 32q0 16 6 39l31 170q10 37 47 37q22 0 31 -9.5t9 -25.5
q0 -8 -1 -17t-2 -23z" />
    <glyph glyph-name="quotedblright" unicode="&#x201d;" horiz-adv-x="450" 
d="M67 421zM363 456q-9 -35 -47 -35t-38 35q0 6 0.5 15.5t1.5 22.5l11 170q2 22 14 34.5t41 12.5q55 0 55 -45q0 -8 -2 -18.5t-4 -19.5zM152 456q-9 -35 -47 -35t-38 35q0 6 0.5 15.5t1.5 22.5l11 170q2 22 14 34.5t41 12.5q55 0 55 -45q0 -8 -2 -18.5t-4 -19.5z" />
    <glyph glyph-name="quotedblbase" unicode="&#x201e;" horiz-adv-x="462" 
d="M67 0zM363 -116q-9 -35 -47 -35t-38 35q0 6 0.5 15.5t1.5 22.5l11 170q2 22 14 34.5t41 12.5q55 0 55 -45q0 -8 -2 -18.5t-4 -19.5zM152 -116q-9 -35 -47 -35t-38 35q0 6 0.5 15.5t1.5 22.5l11 170q2 22 14 34.5t41 12.5q55 0 55 -45q0 -8 -2 -18.5t-4 -19.5z" />
    <glyph glyph-name="dagger" unicode="&#x2020;" horiz-adv-x="613" 
d="M353 455l-17 -431q-1 -17 -9 -23t-20 -6q-13 0 -21.5 6t-9.5 23l-18 431h-131q-45 0 -45 36q0 35 45 35h128l-4 110v9q0 18 5 28.5t13 15.5t18 6.5t20 1.5t19.5 -1.5t17 -7t12.5 -16.5t5 -29v-7l-5 -110h130q46 0 46 -35q0 -36 -46 -36h-133z" />
    <glyph glyph-name="daggerdbl" unicode="&#x2021;" horiz-adv-x="613" 
d="M259 160h-132q-45 0 -45 36q0 35 45 35h137l7 114l-8 117h-136q-45 0 -45 35t45 35h132l-8 118v7q0 13 5 21t13 12.5t18 5.5t20 1t19.5 -1t17 -5.5t12.5 -12.5t5 -22v-6l-8 -118h133q46 0 46 -35t-46 -35h-138l-8 -116l8 -115h138q46 0 46 -35q0 -36 -46 -36h-133l8 -118
v-6q0 -14 -5 -22t-12.5 -12.5t-17 -5.5t-19.5 -1t-20 1t-18 5.5t-13 12t-5 21.5v7z" />
    <glyph glyph-name="bullet" unicode="&#x2022;" horiz-adv-x="457" 
d="M193 241q-94 0 -94 60v65q0 61 94 61h74q91 0 91 -58v-68q0 -60 -91 -60h-74z" />
    <glyph glyph-name="ellipsis" unicode="&#x2026;" horiz-adv-x="796" 
d="M86 0zM456 44q0 -49 -60 -49q-59 0 -59 49t60 49q59 0 59 -49zM710 44q0 -49 -60 -49q-59 0 -59 49t60 49q59 0 59 -49zM205 44q0 -49 -60 -49q-59 0 -59 49t60 49q59 0 59 -49z" />
    <glyph glyph-name="perthousand" unicode="&#x2030;" horiz-adv-x="1523" 
d="M61 0zM416 661q0 47 -80 47h-114q-77 0 -77 -47v-154q0 -52 87 -52h98q86 0 86 52v154zM222 391q-161 0 -161 108v170q0 103 159 103h121q159 0 159 -103v-170q0 -108 -161 -108h-117zM1378 190q0 47 -80 47h-114q-77 0 -77 -47v-154q0 -52 87 -52h98q86 0 86 52v154z
M1184 -80q-161 0 -161 108v170q0 103 159 103h121q159 0 159 -103v-170q0 -108 -161 -108h-117zM881 190q0 47 -80 47h-114q-77 0 -77 -47v-154q0 -52 87 -52h98q86 0 86 52v154zM687 -80q-161 0 -161 108v170q0 103 159 103h121q159 0 159 -103v-170q0 -108 -161 -108h-117
zM238 12q-10 -10 -19 -13.5t-18 -3.5q-19 0 -30.5 9t-11.5 26q0 14 14 28l609 622q17 17 36 17q20 0 31.5 -9t11.5 -26q0 -12 -13 -28z" />
    <glyph glyph-name="guilsinglleft" unicode="&#x2039;" horiz-adv-x="357" 
d="M75 217q-5 11 -6.5 16.5t-1.5 9.5q0 5 1.5 10t6.5 16l127 193q9 18 21 23.5t24 5.5q20 0 31.5 -8.5t11.5 -23.5q0 -3 -1.5 -8.5t-6.5 -15.5l-127 -192l127 -192q5 -11 6.5 -16t1.5 -9q0 -15 -11.5 -23t-31.5 -8q-12 0 -24 5t-21 24z" />
    <glyph glyph-name="guilsinglright" unicode="&#x203a;" horiz-adv-x="357" 
d="M155 24q-9 -18 -21 -23.5t-24 -5.5q-19 0 -31 8t-12 23q0 4 1.5 9t6.5 16l127 192l-127 192q-5 10 -6.5 15.5t-1.5 8.5q0 15 12 23.5t31 8.5q12 0 24 -5.5t21 -23.5l127 -193q5 -11 6.5 -16.5t1.5 -9.5q0 -5 -1.5 -10t-6.5 -16z" />
    <glyph glyph-name="Euro" unicode="&#x20ac;" horiz-adv-x="883" 
d="M257 233v-23q0 -133 178 -133h313q49 0 49 -38q0 -39 -49 -39h-318q-278 0 -278 211v22h-41q-42 0 -42 32t42 32h41v106h-41q-42 0 -42 32t42 32h41v47q0 178 277 178h319q49 0 49 -38q0 -39 -49 -39h-319q-86 0 -129 -23.5t-43 -76.5v-48h397q41 0 41 -32t-41 -32h-397
v-106h308q41 0 41 -32t-41 -32h-308z" />
    <glyph glyph-name="trademark" unicode="&#x2122;" horiz-adv-x="1266" 
d="M1133 585l-228 -295q-5 -6 -13 -11t-21 -5t-20.5 5t-12.5 11l-228 295v-286q0 -25 -33 -25q-32 0 -32 25v369q0 27 33 27q14 0 22 -4.5t15 -13.5l256 -333l258 333q7 8 14.5 13t21.5 5q33 0 33 -27v-369q0 -25 -32 -25q-33 0 -33 25v286zM218 643h-163q-30 0 -30 25
q0 24 30 24h391q31 0 31 -24q0 -25 -31 -25h-163v-344q0 -25 -32 -25q-33 0 -33 25v344z" />
  </font>
</defs>
</svg>
